Ссылка на приватное зеркало всего за 1$. Внимание количество ограничено!!!

iTunes

1+1

iTunes

мы

MV0

1

WEB-DLRip

Джокер

Пифагор

Ведьмак / The Witcher сериал

iTunes

ПШазам

iTunes

Оно 2

iTunes

30
pack

Вам бонус

ВАЖНО

!!Акция!!

Alien_RageХит недели

RePack

Resident Evil 21

ИГРА 18+

pack

RePack

jed

!!Акция!!

Alien_Rage

RePack

fifa19

RePack

Assassins Creed: Odyssey

RePack

NEED FOR SPEED™ PAYBACK

4 сезон

9 сезон

Бесстыжие 9 сезон

Все сериалы

все сериалы на PB.wtf

RePack

FAR CRY 5
  

Они шли на восток (Дмитрий Васильев, Джузеппе Де Сантис) [1964, Италия, СССР, драма, военный, история, DVDRip-HEVC от AVP Studio] piratbit.pw

Они шли на восток через торрент piratbit.pw

Раздают: 4 [ 0 KB/s ]
Размер: 2.18 GB | Добавлен: 10 д. назад | Торрент скачан:3 раза
Скачать  

15-02-2020 13:20 Они шли на восток Скачать торрент  

Они шли на восток
Страна: СССР
Производство: Мосфильм, Galatea Film

Жанр: драма, военный, история
Год выпуска: 1964
Продолжительность: 02:21:36

Перевод: Не требуется
Cубтитры: нет
Оригинальная аудиодорожка: русский

Режиссер: Дмитрий Васильев, Джузеппе Де Сантис

В ролях:
Андреа Чекки, Татьяна Самойлова, Раффаэле Пизу, Жанна Прохоренко, Артур Кеннеди, Питер Фальк, Риккардо Куччолла, Григорий Михайлов, Нино Винджелли, Лев Прыгунов, Джино Перниче, Винченцо Полицци, Валерий Сомов, Борис Кожухов, Анатолий Сахновский...
Об актёрах подробней

Описание:
Солдаты и офицеры итальянских дивизий шли на Восток, к Москве. Дорого стоил оккупантам каждый их шаг. В этом походе погибает молодой солдат — крестьянин Бадзокки… На Дону итальянцы переходят к обороне. Немцы отшвыривают их с дороги, давят под колесами обмороженных, раненых «союзников». Среди отступающих — старшина Габриэлли. Ему не суждено больше увидеть родину: после многодневного мучительного продвижения Габриэлли замерзнет в пустынном поле…

Источник: DVD9 R5
Качество видео: DVDRip-HEVC
Формат видео: MKV

Видео: 688->763х572 (4:3), 25,000 fps, H265 ~ 2073 kbps avg, 0.211 bit/pixel
Аудио: 48 kHz, AAC LC 2.0, 128 kbps

Раздача от:
Общее
Полное имя : Oni.shli.na.vostok.1964.DVDRip-HEVC_[New-team]_by_AVP_Studio.mkv
Формат : Matroska
Версия формата : Version 4
Размер файла : 2,18 Гбайт
Продолжительность : 2 ч. 21 м.
Общий поток : 2203 Кбит/сек
Дата кодирования : UTC 2020-02-13 19:52:11
Программа кодирования : mkvmerge v43.0.0 ('The Quartermaster') 64-bit
Библиотека кодирования : libebml v1.3.10 + libmatroska v1.5.2

Видео
Идентификатор : 1
Формат : HEVC
Формат/Информация : High Efficiency Video Coding
Профиль формата : Main@L3@Main
Идентификатор кодека : V_MPEGH/ISO/HEVC
Продолжительность : 2 ч. 21 м.
Битрейт : 2073 Кбит/сек
Ширина : 688 пикселей
Высота : 572 пикселя
Соотношение сторон : 4:3
Режим частоты кадров : Постоянный
Частота кадров : 25,000 кадров/сек
Цветовое пространство : YUV
Субдискретизация насыщенности : 4:2:0
Битовая глубина : 8 бит
Бит/(Пиксели*Кадры) : 0.211
Размер потока : 2,05 Гбайт (94%)
Библиотека кодирования : x265 1.9+87-9915f21db1c2:[Windows][GCC 5.3.0][64 bit] 8bit
Настройки программы : wpp / ctu=64 / min-cu-size=8 / max-tu-size=32 / tu-intra-depth=1 / tu-inter-depth=1 / me=0 / subme=7 / merange=57 / no-rect / no-amp / max-merge=2 / temporal-mvp / no-early-skip / rdpenalty=0 / no-tskip / no-tskip-fast / strong-intra-smoothing / no-lossless / no-cu-lossless / no-constrained-intra / no-fast-intra / open-gop / no-temporal-layers / interlace=0 / keyint=250 / min-keyint=25 / scenecut=0 / rc-lookahead=5 / lookahead-slices=0 / bframes=3 / bframe-bias=0 / b-adapt=0 / ref=1 / limit-refs=3 / no-limit-modes / no-weightp / no-weightb / aq-mode=1 / qg-size=32 / aq-strength=0.00 / cbqpoffs=0 / crqpoffs=0 / rd=3 / psy-rd=2.00 / rdoq-level=0 / psy-rdoq=0.00 / no-rd-refine / signhide / deblock=-3:-3 / sao / no-sao-non-deblock / b-pyramid / cutree / no-intra-refresh / rc=2 / pass / bitrate=2072 / qcomp=0.60 / qpmin=0 / qpmax=51 / qpstep=4 / cplxblur=20.0 / qblur=0.5 / ipratio=1.40 / pbratio=1.30
Язык : Russian
Default : Да
Forced : Нет

Аудио
Идентификатор : 2
Формат : AAC LC
Формат/Информация : Advanced Audio Codec Low Complexity
Идентификатор кодека : A_AAC-2
Продолжительность : 2 ч. 21 м.
Битрейт : 128 Кбит/сек
Каналы : 2 канала
ChannelLayout : L R
Частота : 48,0 КГц
Частота кадров : 46,875 кадров/сек (1024 SPF)
Метод сжатия : С потерями
Размер потока : 130 Мбайт (6%)
Язык : Russian
Default : Да
Forced : Нет

Меню
00:00:00.000 : :Глава 1
00:07:35.040 : :Глава 2
00:15:13.200 : :Глава 3
00:22:37.680 : :Глава 4
00:30:14.520 : :Глава 5
00:37:49.320 : :Глава 6
00:45:55.920 : :Глава 7
00:53:45.240 : :Глава 8
01:09:52.800 : :Глава 9
01:22:59.920 : :Глава 10
01:31:07.240 : :Глава 11
01:35:08.679 : :Глава 12
01:38:10.360 : :Глава 13
01:41:01.599 : :Глава 14
01:48:49.480 : :Глава 15
01:57:02.799 : :Глава 16
02:05:16.959 : :Глава 17
02:13:45.759 : :Глава 18
piratbit.pw



Скачать Они шли на восток через торрент http://a.radikal.ru/a16/2002/fe/690c1ef74016.png Скачать фильм Они шли на восток через торрент бесплантно в хорошем качестве Описание:Солдаты и офицеры итальянских дивизий шли на Восток, к Москве. Дорого стоил оккупантам каждый их шаг. В этом походе погибает ... 5 10 1
Торрент: Зарегистрирован [2020-02-15 13:20] · скачан: 3 раз
Статус: x закрыто
Размер: 2.18 GB
Как cкачать? Как скачать Они шли на восток через торрент | qTorrent

% Раздел Тема Автор DL S | L
Кино СССР [ 2.17 GB ] Они шли на восток [1964 Италия СССР военный история DVDRip-AVC от AVP Studio] AVP Studio Скачать
4 | 1

28-11-2019 20:33  

Отключить всю рекламу на сайте

15-02-2020 14:27 Они шли на восток Скачать торрент  

Извините конечно, а это

Цитата:

ref=1

считается хорошим рипом, от партнера??
Закрытоpiratbit.pw



15-02-2020 14:27 Они шли на восток Скачать торрент  

Топик был перенесен из форума Кино СССР в форум Архив


Enigma2010piratbit.pw



    Дорогой пользователь! Огромная просьба, поблагодарите релизера, оцените раздачу и оставьте свои комментарий, если Вы скачали Они шли на восток через торрент бесплатно! Внесите свою лепту в развитие PiratBit!
    Комментировать посты могут только пользователи прошедшие не сложную регистрацию
    Показать сообщения:    

    Они шли на восток через торрент
    Скачать бесплатно Они шли на восток
    Они шли на восток скачать торрент
    Они шли на восток смотреть онлайн
    Cкачать фильм Они шли на восток бесплатно
    Они шли на восток скачать торрент в хорошем качестве
    Они шли на восток смотреть онлайн бесплатно в хорошем качестве


    Вы можете начинать темы
    Вы можете отвечать на сообщения
    Вы не можете редактировать свои сообщения
    Вы не можете удалять свои сообщения
    Вы не можете голосовать в опросах
    Вы не можете прикреплять файлы к сообщениям
    Вы можете скачивать файлы