Ссылка на приватное зеркало нашего сайта всего за 1$. Внимание количество ограничено!!!

2 сезон

iTunes

iTunes

1

iTunes

iTunes

iTunes

WEBRip

iTunes

30
pack

Вам бонус

ВАЖНО

!!Акция!!

Alien_RageХит недели

RePack

Horizon Zero Dawn

ИГРА 18+

pack

RePack

jed

!!Акция!!

Alien_Rage

RePack

fifa19

RePack

Assassins Creed: Odyssey

RePack

NEED FOR SPEED™ PAYBACK

4 сезон

9 сезон

Бесстыжие 9 сезон

Все сериалы

все сериалы на PB.wtf

RePack

FAR CRY 5
  

Discovery. Дальнобойщик в Америке (1 сезон: 1-10 серии из 10) / Ciezarowka przez stany (Discovery Channel) [2020 г., Документальный, HDTVRip (720p), Профессиональный (многоголосый)] piratbit.pw

Discovery. Дальнобойщик в Америке через торрент piratbit.pw

Размер: 9.4 GB | Добавлен: 5 мес. назад | Торрент скачан:3 раза
Скачать  

15-02-2020 11:15 Discovery. Дальнобойщик в Америке Скачать торрент  

Discovery. Дальнобойщик в Америке (1 сезон) / Ciezarowka przez stany
Год выпуска: 2020
Страна: США
Жанр: Документальный
Продолжительность: 10 x ~ 00:32:00
Перевод: Профессиональный (многоголосый)
Субтитры: НЕТ

Режиссер: Discovery Channel

Описание: Жизнь профессионального водителя грузовой фуры далеко не сказка, но дальнобойщик Давид Андрес с большим энтузиазмом преодолевает тысячи километров по дорогам Америки

Качество: HDTVRip (720p)
Формат: MKV
Видео кодек: AVC
Аудио кодек: MP2
Видео: MPEG-4 AVC, (1280x720),4000 Кбит/с, 50.000 кадра/сек
Аудио#1: МР2, 2 ch,192 kbps (Rus) 48.0 KHz Профессиональный (одноголосый)
скриншот   скриншот   скриншот  

Имя файла: Дальнобойщик в Америке.mkv
Формат файла: .mkv (Matroska)
Размер файла: 966,65 MB (1 013 601 833 bytes)
Длительность: 32mn 11s
Навигация по главам: Нет
Битрейт (все потоки): 4 197 Kbps
Тип битрейта (все потоки): Constant
Создан при помощи: Lavf54.63.104
Использовалась библиотека: Lavf54.63.104
Обложка: Отсутствует
:
Название: Дальнобойщик в Америке
:
Тип потока: Видео
Длительность: 00:32:11
Кодек: AVC
Кодек/описание: Advanced Video Codec
Кодек/профиль: High@L4.1
Кодек/ID: V_MPEG4/ISO/AVC
Кодек/CABAC: Yes
Кодек/ReFrames: 3 frames
Размеры изображения: 1280 x 720 (16:9)
Частота кадров: 50.000 fps
Частота кадров/тип: Constant
Размер потока: 903 MiB (93%)
Битрейт: 4 000 Kbps
Битрейт/тип: CBR
Стандарт: PAL
Цветовое пространство: YUV
Тип развёртки: Progressive
Колориметрия: 4:2:0
Глубина: 8 bits
:
Тип потока: Звук #1
Язык: RUS
Длительность: 00:32:11.920
Кодек: MPEG Audio
Кодек/профиль: Layer 2
Кодек/ID: A_MPEG/L2
Частота дискретизации: 48.0 KHz
Каналов: 2 channels
Битрейт: 192 Kbps
Битрейт/тип: Constant
Размер потока: 44.2 MiB (5%)
Метод сжатия: Lossy

Раздача ведётся путём добавления новых серий, при каждом добавлении создаётся новый торрент. Чтобы начать докачку новой серии, пользователям необходимо сделать следующее:

- Остановить скачивание.
- Удалить старый торрент у себя из клиента (старые серии удалять не надо).
- Скачать новый торрент и запустить его у себя в клиенте вместо старого, при этом указать клиенту путь в старую папку куда и должно происходить скачивание новых серий.

Ваш клиент при этом должен произвести хеширование (проверку) старой папки (если не производит сам - помогите ему сделать это), и будет докачивать только те серии которых у вас ещё нет. Старые серии при этом не удаляются, а продолжают раздаваться!
Если вы уже удалили старые серии, то предотвратить повторную закачку старых серий можно, отжав галочку в соответствующих местах при запуске нового торрента. По возможности, желательно не удалять старые серии как можно дольше, чтобы релизер не столько продолжал раздавать старые серии, а смог сконцентрироваться на новых.
ДОБАВЛЕНА 01-10 СЕРИЯ ПЕРЕЗАЛЕЙТЕ ТОРРЕНТ ФАИЛpiratbit.pw



Скачать Discovery. Дальнобойщик в Америке через торрент http://pic1.kartinco.top/images/12/2h4ja.jpg Скачать фильм Discovery. Дальнобойщик в Америке через торрент бесплантно в хорошем качестве Описание: Жизнь профессионального водителя грузовой фуры далеко не сказка, но дальнобойщик Давид Андрес с большим энтузиазмом преодолевает ... 10 10 3
Торрент: Зарегистрирован [2020-03-26 11:57] · скачан: 3 раз
Статус: √ проверено
Размер: 9.4 GB
Как cкачать? Как скачать Discovery. Дальнобойщик в Америке через торрент | qTorrent



Последний раз редактировалось: Бумер (2020-03-26 11:57), всего редактировалось 1 раз

28-11-2019 20:33  

Отключить всю рекламу на сайте

20-03-2020 09:43 Discovery. Дальнобойщик в Америке Скачать торрент  

Если я посмотрю данный документальный фильм, будет ли это являться основанием получения трудовой визы водителя дальнобойщика в сша? piratbit.pw



    Дорогой пользователь! Огромная просьба, поблагодарите релизера, оцените раздачу и оставьте свои комментарий, если Вы скачали Discovery. Дальнобойщик в Америке через торрент бесплатно! Внесите свою лепту в развитие PiratBit!
    Комментировать посты могут только пользователи прошедшие не сложную регистрацию
    Показать сообщения:    

    Discovery. Дальнобойщик в Америке через торрент
    Скачать бесплатно Discovery. Дальнобойщик в Америке
    Discovery. Дальнобойщик в Америке скачать торрент
    Discovery. Дальнобойщик в Америке смотреть онлайн
    Cкачать фильм Discovery. Дальнобойщик в Америке бесплатно
    Discovery. Дальнобойщик в Америке скачать торрент в хорошем качестве
    Discovery. Дальнобойщик в Америке смотреть онлайн бесплатно в хорошем качестве


    Вы не можете начинать темы
    Вы не можете отвечать на сообщения
    Вы не можете редактировать свои сообщения
    Вы не можете удалять свои сообщения
    Вы не можете голосовать в опросах
    Вы не можете прикреплять файлы к сообщениям
    Вы можете скачивать файлы