Marvel's Avengers Deluxe Edition (супер цена) 159р. Внимание количество ограничено!!!

2 сезон

iTunes

iTunes

1

iTunes

iTunes

iTunes

WEBRip

iTunes

30
pack

Новость дня

ВАЖНО

!!Акция!!

Alien_RageХит недели

RePack

Horizon Zero Dawn

ИГРА 18+

pack

RePack

jed

!!Акция!!

Alien_Rage

RePack

fifa19

RePack

Assassins Creed: Odyssey

RePack

NEED FOR SPEED™ PAYBACK

4 сезон

9 сезон

Бесстыжие 9 сезон

Все сериалы

все сериалы на PB.wtf

RePack

FAR CRY 5
  

Сквозь чёрное стекло (Константин Лопушанский) [2019, Драма, WEB-DL 1080p] [iTunes] piratbit.pw

Сквозь чёрное стекло через торрент piratbit.pw

Размер: 5.48 GB | Добавлен: 7 мес. назад | Торрент скачан:69 раз
Скачать  

10-02-2020 17:12 Сквозь чёрное стекло Скачать торрент  

Сквозь чёрное стекло
Год выпуска: 2019
Страна: Россия
Жанр: Драма
Продолжительность: 02:19:08
Перевод: Не требуется | iTunes
Субтитры: отсутствуют

Режиссер: Константин Лопушанский

rating

В ролях: Максим Суханов, Василиса Денисова, Надежда Маркина, Ольга Онищенко, Андрей Полищук, Анна Екатерининская, Елена Зимина, Анна Дулова, Александра Мамкаева, Алексей Манцыгин

Описание: История незрячей девушки, судьба которой преподносит уникальный шанс. Состоятельный мужчина готов подарить ей зрение, если она вслепую станет его женой. Этот дар открывает героине жестокую правду жизни...

Качество: WEB-DL 1080p
Формат: MKV

Видео: 5146 Кбит/с, 1920x1080
Аудио: Russian: AC3, 6 ch, 384 Kb/s
скриншот  скриншот  скриншот  скриншот  

Video
ID : 1
Format : AVC
Format/Info : Advanced Video Codec
Format profile : High@L4
Format settings : CABAC / 4 Ref Frames
Format settings, CABAC : Yes
Format settings, Reference : 4 frames
Codec ID : V_MPEG4/ISO/AVC
Duration : 2 h 19 min
Bit rate : 5 146 kb/s
Width : 1 920 pixels
Height : 1 080 pixels
Display aspect ratio : 16:9
Frame rate mode : Constant
Frame rate : 25.000 FPS
Color space : YUV
Chroma subsampling : 4:2:0
Bit depth : 8 bits
Scan type : Progressive
Bits/(Pixel*Frame) : 0.099
Stream size : 5.00 GiB (91%)
Title : THROUGH_BG_2019_WEB-DL_1080p-BLUEBIRD
Language : English
Default : Yes
Forced : No
Color range : Limited
Color primaries : BT.709
Transfer characteristics : BT.709
Matrix coefficients : BT.709

Audio
ID : 2
Format : AC-3
Format/Info : Audio Coding 3
Commercial name : Dolby Digital
Codec ID : A_AC3
Duration : 2 h 19 min
Bit rate mode : Constant
Bit rate : 384 kb/s
Channel(s) : 6 channels
Channel layout : L R C LFE Ls Rs
Sampling rate : 48.0 kHz
Frame rate : 31.250 FPS (1536 SPF)
Compression mode : Lossy
Stream size : 382 MiB (7%)
Title : [ORIGINAL] DD 5.1 @ 384 kbps (iTunes)
Language : Russian
Service kind : Complete Main
Default : Yes
Forced : No

Menu
00:00:00.000 : en:Глава 1
00:05:12.520 : en:Глава 2
00:12:41.000 : en:Глава 3
00:21:39.800 : en:Глава 4
00:30:31.920 : en:Глава 5
00:40:11.840 : en:Глава 6
00:49:05.880 : en:Глава 7
00:58:14.560 : en:Глава 8
01:07:06.080 : en:Глава 9
01:16:36.360 : en:Глава 10
01:24:24.840 : en:Глава 11
01:31:09.280 : en:Глава 12
01:37:52.040 : en:Глава 13
01:45:10.280 : en:Глава 14
01:54:50.280 : en:Глава 15
02:05:11.600 : en:Глава 16

piratbit.pw



Скачать Сквозь чёрное стекло через торрент https://i5.imageban.ru/out/2020/02/10/badd7094f19f8b6efc9e973a96d77824.png Скачать фильм Сквозь чёрное стекло через торрент бесплантно в хорошем качестве Описание: История незрячей девушки, судьба которой преподносит уникальный шанс. Состоятельный мужчина готов подарить ей зрение, если она ... 10 10 7
Торрент: Зарегистрирован [2020-02-10 17:12] · скачан: 69 раз
Статус: √ проверено
Размер: 5.48 GB
Как cкачать? Как скачать Сквозь чёрное стекло через торрент | qTorrent

% Раздел Тема Автор DL S | L
Наши новые фильмы 2018-2019 [ 2.19 GB ] Сквозь чёрное стекло [2019 WEB-DLRip] bober100 Скачать
3 | 0

28-11-2019 20:33  

Отключить всю рекламу на сайте

    Дорогой пользователь! Огромная просьба, поблагодарите релизера, оцените раздачу и оставьте свои комментарий, если Вы скачали Сквозь чёрное стекло через торрент бесплатно! Внесите свою лепту в развитие PiratBit!
    Комментировать посты могут только пользователи прошедшие не сложную регистрацию
    Показать сообщения:    

    Сквозь чёрное стекло через торрент
    Скачать бесплатно Сквозь чёрное стекло
    Сквозь чёрное стекло скачать торрент
    Сквозь чёрное стекло смотреть онлайн
    Cкачать фильм Сквозь чёрное стекло бесплатно
    Сквозь чёрное стекло скачать торрент в хорошем качестве
    Сквозь чёрное стекло смотреть онлайн бесплатно в хорошем качестве


    Вы не можете начинать темы
    Вы не можете отвечать на сообщения
    Вы не можете редактировать свои сообщения
    Вы не можете удалять свои сообщения
    Вы не можете голосовать в опросах
    Вы не можете прикреплять файлы к сообщениям
    Вы можете скачивать файлы