Ссылка на приватное зеркало нашего сайта всего за 1$. Внимание количество ограничено!!!

2 сезон

iTunes

1 сезон

1

2 сезон

2 сезон

iTunes

1 сезон

RePack

30

Новинка

ВАЖНО

ИГРА 18+

pack

RePack

MK11
pack

Забери бонус

RePack

jed

!!Акция!!

Alien_Rage

RePack

fifa19

RePack

Assassins Creed: Odyssey

RePack

NEED FOR SPEED™ PAYBACK

4 сезон

9 сезон

Бесстыжие 9 сезон

Все сериалы

все сериалы на PB.wtf

RePack

FAR CRY 5
  

21 мост / 21 Bridges (Брайан Кирк) [2019 г., Боевик, триллер, драма, криминал, HDRip, Дубляж iTunes] piratbit.pw

21 мост через торрент piratbit.pw

Размер: 727 MB | Добавлен: 9 мес. назад | Торрент скачан:156 раз
Скачать  

07-02-2020 10:44 21 мост Скачать торрент  

21 мост / 21 Bridges
Год выпуска: 2019
Страна: США
Жанр: Боевик, триллер, драма, криминал
Продолжительность: 01:39:56
Перевод: Дубляж iTunes
Субтитры: нет

Режиссер: Брайан Кирк

rating

В ролях: Чэдвик Боузмэн, Сиенна Миллер, Тейлор Китч, Дж.К. Симмонс, Стэфан Джеймс, Кит Дэвид, Александр Сиддиг, Луис Канселми, Виктория Картахена, Гари Карр

Описание: Он охотится на преступников, которые совершили на Манхэттене дерзкое ограбление, оставив после себя 8 мертвых полицейских. А продажные копы тем временем охотятся на него, пытаясь подставить. Но преступникам не скрыться, так как первый раз в истории Нью-Йорка полиция перекрыла все выходы с острова, в том числе 21 мост.Автор рипа:
Качество: HDRip Исходник: BDRip 1080p
Формат: AVI
Видео кодек: XviD
Аудио кодек: MP3
Видео: MPEG-4, 720 x 304 (2.378), 25.000 fps, 747 Кбит/сек
Аудио#1: MPEG 3, 256 Кбит/сек, 2 канала, 48,0 КГц


Общее
Полное имя : C:\Users\samsung\Desktop\Фильмы для раздач\21.Bridges.2019.HDRip by LeonardoD.avi
Формат : AVI
Формат/Информация : Audio Video Interleave
Размер файла : 727 Мбайт
Продолжительность : 1 ч. 39 м.
Общий поток : 1016 Кбит/сек
Программа кодирования : Lavf57.41.100

Видео
Идентификатор : 0
Формат : MPEG-4 Visual
Профиль формата : Advanced Simple@L5
Настройки формата : BVOP1
Параметр BVOP формата : 1
Параметр QPel формата : Нет
Параметр GMC формата : Без точки перехода
Параметр матрицы формата : Default (H.263)
Идентификатор кодека : XVID
Идентификатор кодека/Подсказка : XviD
Продолжительность : 1 ч. 39 м.
Битрейт : 747 Кбит/сек
Ширина : 720 пикселей
Высота : 304 пикселя
Соотношение сторон : 2,40:1
Частота кадров : 25,000 кадров/сек
Цветовое пространство : YUV
Субдискретизация насыщенности : 4:2:0
Битовая глубина : 8 бит
Тип развёртки : Прогрессивная
Метод сжатия : С потерями
Бит/(Пиксели*Кадры) : 0.137
Размер потока : 534 Мбайт (74%)
Библиотека кодирования : XviD 67

Аудио
Идентификатор : 1
Формат : MPEG Audio
Версия формата : Version 1
Профиль формата : Layer 3
Настройки формата : Joint stereo
Идентификатор кодека : 55
Идентификатор кодека/Подсказка : MP3
Продолжительность : 1 ч. 39 м.
Вид битрейта : Постоянный
Битрейт : 256 Кбит/сек
Каналы : 2 канала
Частота : 48,0 КГц
Метод сжатия : С потерями
Размер потока : 183 Мбайт (25%)
Выравнивание : Соединение по промежуткам
Продолжительность промежутка : 24 мс. (0,60 видеокадр)
Библиотека кодирования : LAME3.99.5

piratbit.pw



Скачать 21 мост через торрент https://c.radikal.ru/c22/2002/c1/4cfe4c150312.png Скачать фильм 21 мост через торрент бесплантно в хорошем качестве Описание: Он охотится на преступников, которые совершили на Манхэттене дерзкое ограбление, оставив после себя 8 мертвых полицейских. А ... 10 10 9
Торрент: Зарегистрирован [2020-02-07 10:44] · скачан: 156 раз
Статус: √ проверено
Размер: 727 MB
Как cкачать? Как скачать 21 мост через торрент | qTorrent

% Раздел Тема Автор DL S | L
Ultra HD (UHD: 2K, 4K, 8K) — видео сверхвысокой чёткости [ 54 GB ] 21 мост / 21 Bridges [2019 UHD BDRemux 2160p] +AVO [Е.Гаевский] bober100 Скачать
1 | 0
Фильмы 2019-2020 [DVDrip, WEB-DLRip, HDrip] (DUB, MVO) [ 1.42 GB ] 21 мост / 21 Bridges [2019 BDRip] bober100 Скачать
10 | 0
Фильмы [HD 720p, 1080p] (Хороший звук DUB, MVO) [ 4.52 GB ] 21 мост / 21 Bridges [2019 BDRip 720p] bober100 Скачать
3 | 0
Фильмы 2019-2020 [DVDrip, WEB-DLRip, HDrip] (DUB, MVO) [ 1.46 GB ] 21 мост / 21 Bridges [2019 HDRip] - Twi7ter Скачать
21 | 0
Фильмы [HD 720p, 1080p] (Хороший звук DUB, MVO) [ 10.85 GB ] 21 мост / 21 Bridges [2019 BDRip 1080p] bober100 Скачать
12 | 0
Фильмы (WEB-DL 720p, 1080p) [ 3.72 GB ] 21 мост / 21 Bridges [2019 WEB-DL 1080p] bober100 Скачать
7 | 0
Фильмы (Blu-ray, BD-Remux, HDDVD) [ 24.56 GB ] 21 мост / 21 Bridges [2019 BD Remux 1080p] bober100 Скачать
1 | 0

28-11-2019 20:33  

Отключить всю рекламу на сайте

    Дорогой пользователь! Огромная просьба, поблагодарите релизера, оцените раздачу и оставьте свои комментарий, если Вы скачали 21 мост через торрент бесплатно! Внесите свою лепту в развитие PiratBit!
    Комментировать посты могут только пользователи прошедшие не сложную регистрацию
    Показать сообщения:    

    21 мост через торрент
    Скачать бесплатно 21 мост
    21 мост скачать торрент
    21 мост смотреть онлайн
    Cкачать фильм 21 мост бесплатно
    21 мост скачать торрент в хорошем качестве
    21 мост смотреть онлайн бесплатно в хорошем качестве


    Вы не можете начинать темы
    Вы не можете отвечать на сообщения
    Вы не можете редактировать свои сообщения
    Вы не можете удалять свои сообщения
    Вы не можете голосовать в опросах
    Вы не можете прикреплять файлы к сообщениям
    Вы можете скачивать файлы