Marvel's Avengers Deluxe Edition (супер цена) 159р. Внимание количество ограничено!!!

2 сезон

iTunes

iTunes

1

iTunes

iTunes

iTunes

WEBRip

iTunes

30
pack

Новость дня

ВАЖНО

!!Акция!!

Alien_RageХит недели

RePack

Horizon Zero Dawn

ИГРА 18+

pack

RePack

jed

!!Акция!!

Alien_Rage

RePack

fifa19

RePack

Assassins Creed: Odyssey

RePack

NEED FOR SPEED™ PAYBACK

4 сезон

9 сезон

Бесстыжие 9 сезон

Все сериалы

все сериалы на PB.wtf

RePack

FAR CRY 5
  

Братство (Павел Лунгин) [2019, драма, боевик, история, военный, BDRip 720p] [FRA Transfer / Лицензия] piratbit.pw

Братство через торрент piratbit.pw

Раздают: 1 [ 0 KB/s ]
Размер: 6.04 GB | Добавлен: 7 мес. назад | Торрент скачан:92 раза
Скачать  

06-02-2020 00:45 Братство Скачать торрент  

Братство
Год выпуска: 2019
Страна: Россия
Жанр: драма, боевик, история, военный
Продолжительность: 01:53:40
Перевод: Не требуется | Лицензия Blu-Ray FRA
Субтитры: Отсутствуют

Режиссер: Павел Лунгин

rating

В ролях:

Кирилл Пирогов, Ян Цапник, Виталий Кищенко, Федор Лавров, Олег Васильков, Антон Момот, Михаил Кремер, Кирилл Ермичев (Мельник), Роман Колотухин, Василий Буткевич, Арслан Мурзабеков, Антон Кузнецов (Абубакр)
Описание: 1988 год, канун вывода советских войск из Афганистана. Командование 108-й мотострелковой дивизии планирует отход через перевал Саланг, подконтрольный группировке моджахедов Инженера Хошема. Разведка пытается договориться о перемирии с душманами, но дело осложняется тем, что в плен к Хошему попадает советский военный пилот. Начинается сложная игра, в которой переплетаются противоположные интересы множества самых разных людей: штабистов, исламистов, спецназа, разведки, чиновников из афганского правительства, сотрудников советских спецслужб, таджиков и пуштунов. А в самом центре этого водоворота оказываются солдаты разведроты, для которых важнее любых политических соображений остается правило - не бросать своих.

Качество: BDRip 720p | FRA Transfer
Формат: MKV

Видео: 1280x720 (16:9), 23,976 fps, MPEG-4 AVC ~ 5462 Кbps avg, 0.247 bit/pixel
Аудио#1: AC3, 48 kHz, 6 ch, ~640.00 kbps avg | русский | Blu-Ray FRA
Аудио#2: DTS, 48 kHz, 6 ch, ~1509.00 kbps avg | французский |
скриншот  скриншот  скриншот  скриншот  скриншот  

Общее
Уникальный идентификатор : 248352559385841082848138434721425701491 (0xBAD6F68CFA2435A27C458A21A6A8BA73)
Полное имя : Bratstvo.2019.FRENCH.720p.BluRay.DTS.x264.mkv
Формат : Matroska
Версия формата : Version 4
Размер файла : 6,04 Гбайт
Продолжительность : 1 ч. 53 м.
Общий поток : 7611 Кбит/сек
Название фильма : Братство (2019)
Дата кодирования : UTC 2020-02-05 12:25:17
Программа кодирования : mkvmerge v41.0.0 ('Smarra') 64-bit
Библиотека кодирования : libebml v1.3.9 + libmatroska v1.5.2
Обложка : Yes
Attachments : cover.jpg

Видео
Идентификатор : 1
Формат : AVC
Формат/Информация : Advanced Video Codec
Профиль формата : High@L4.1
Настройки формата : CABAC / 5 Ref Frames
Параметр CABAC формата : Да
Параметр RefFrames формата : 5 кадров
Идентификатор кодека : V_MPEG4/ISO/AVC
Продолжительность : 1 ч. 53 м.
Битрейт : 5462 Кбит/сек
Ширина : 1280 пикселей
Высота : 720 пикселей
Соотношение сторон : 16:9
Режим частоты кадров : Постоянный
Частота кадров : 23,976 (24000/1001) кадра/сек
Цветовое пространство : YUV
Субдискретизация насыщенности : 4:2:0
Битовая глубина : 8 бит
Тип развёртки : Прогрессивная
Бит/(Пиксели*Кадры) : 0.247
Размер потока : 4,33 Гбайт (72%)
Заголовок : UTT
Библиотека кодирования : x264 core 152 r2851 ba24899
Настройки программы : cabac=1 / ref=5 / deblock=1:-3:-3 / analyse=0x3:0x113 / me=umh / subme=10 / psy=1 / psy_rd=1.00:0.00 / mixed_ref=1 / me_range=24 / chroma_me=1 / trellis=2 / 8x8dct=1 / cqm=0 / deadzone=21,11 / fast_pskip=1 / chroma_qp_offset=-2 / threads=22 / lookahead_threads=4 / sliced_threads=0 / nr=0 / decimate=1 / interlaced=0 / bluray_compat=0 / constrained_intra=0 / bframes=8 / b_pyramid=2 / b_adapt=2 / b_bias=0 / direct=3 / weightb=1 / open_gop=0 / weightp=2 / keyint=230 / keyint_min=23 / scenecut=40 / intra_refresh=0 / rc_lookahead=60 / rc=2pass / mbtree=1 / bitrate=5462 / ratetol=1.0 / qcomp=0.60 / qpmin=0 / qpmax=69 / qpstep=4 / cplxblur=20.0 / qblur=0.5 / vbv_maxrate=62500 / vbv_bufsize=78125 / nal_hrd=none / filler=0 / ip_ratio=1.40 / aq=1:1.00
Язык : French
Default : Да
Forced : Нет

Аудио #1
Идентификатор : 2
Формат : AC-3
Формат/Информация : Audio Coding 3
Коммерческое название : Dolby Digital
Идентификатор кодека : A_AC3
Продолжительность : 1 ч. 53 м.
Вид битрейта : Постоянный
Битрейт : 640 Кбит/сек
Каналы : 6 каналов
ChannelLayout : L R C LFE Ls Rs
Частота : 48,0 КГц
Частота кадров : 31,250 кадров/сек (1536 SPF)
Метод сжатия : С потерями
Размер потока : 520 Мбайт (8%)
Заголовок : Blu-ray FRA
Язык : Russian
Default : Да
Forced : Да

Аудио #2
Идентификатор : 3
Формат : DTS
Формат/Информация : Digital Theater Systems
Идентификатор кодека : A_DTS
Продолжительность : 1 ч. 53 м.
Вид битрейта : Постоянный
Битрейт : 1509 Кбит/сек
Каналы : 6 каналов
ChannelLayout : C L R Ls Rs LFE
Частота : 48,0 КГц
Частота кадров : 93,750 кадра/сек (512 SPF)
Битовая глубина : 24 бит
Метод сжатия : С потерями
Размер потока : 1,20 Гбайт (20%)
Заголовок : Blu-ray FRA
Язык : Russian
Default : Нет
Forced : Нет

Меню
00:00:00.000 : en:00:00:00.000
00:08:36.516 : en:00:08:36.516
00:21:33.501 : en:00:21:33.501
00:36:35.443 : en:00:36:35.443
00:49:51.071 : en:00:49:51.071
00:59:56.635 : en:00:59:56.635
01:10:45.658 : en:01:10:45.658
01:18:43.469 : en:01:18:43.469
01:28:27.719 : en:01:28:27.719
01:38:17.475 : en:01:38:17.475

piratbit.pw



Скачать Братство через торрент https://i111.fastpic.ru/big/2020/0205/37/65bc8589e6c3e23ee6a55f4652b2a737.jpg Скачать фильм Братство через торрент бесплантно в хорошем качестве Описание: 1988 год, канун вывода советских войск из Афганистана. Командование 108-й мотострелковой дивизии планирует отход через перевал ... 10 10 5
Торрент: Зарегистрирован [2020-02-06 00:45] · скачан: 92 раз
Статус: √ проверено
Размер: 6.04 GB
Как cкачать? Как скачать Братство через торрент | qTorrent

% Раздел Тема Автор DL S | L
Наши новые фильмы 2018-2019 [ 2.19 GB ] Братство [2019 история военный BDRip] [Русский] [] Twi7ter Скачать
5 | 0
Наши новые фильмы 2018-2019 [ 1.47 GB ] Братство [2019 история военный BDRip] [Русский] [] Twi7ter Скачать
13 | 0
Наши фильмы (Blu-ray, BD-Remux, HDDVD) [ 36.93 GB ] Братство [2019 история военный Blu-ray Оригинальный] Бумер Скачать
1 | 0
Наши новые фильмы 2018-2019 [ 1.46 GB ] Братство [2019 история военный BDRip] [FRA Transfer / ] bober100 Скачать
3 | 0
Наши фильмы (Blu-ray, BD-Remux, HDDVD) [ 28.12 GB ] Братство [2019 история военный BD Remux 1080p] [FRA Transfer / ] bober100 Скачать
1 | 0
Наши новые фильмы 2018-2019 [ 2.18 GB ] Братство [2019 история военный BDRip] [FRA Transfer / ] bober100 Скачать
1 | 0
Наши фильмы (HD, WEB-DL 720p, 1080p) [ 9.26 GB ] Братство [2019 история военный BDRip 1080p] [FRA Transfer / ] bober100 Скачать
2 | 0

28-11-2019 20:33  

Отключить всю рекламу на сайте

    Дорогой пользователь! Огромная просьба, поблагодарите релизера, оцените раздачу и оставьте свои комментарий, если Вы скачали Братство через торрент бесплатно! Внесите свою лепту в развитие PiratBit!
    Комментировать посты могут только пользователи прошедшие не сложную регистрацию
    Показать сообщения:    

    Братство через торрент
    Скачать бесплатно Братство
    Братство скачать торрент
    Братство смотреть онлайн
    Cкачать фильм Братство бесплатно
    Братство скачать торрент в хорошем качестве
    Братство смотреть онлайн бесплатно в хорошем качестве


    Вы не можете начинать темы
    Вы не можете отвечать на сообщения
    Вы не можете редактировать свои сообщения
    Вы не можете удалять свои сообщения
    Вы не можете голосовать в опросах
    Вы не можете прикреплять файлы к сообщениям
    Вы можете скачивать файлы