Ссылка на приватное зеркало нашего сайта всего за 1$. Внимание количество ограничено!!!

2 сезон

iTunes

1 сезон

1

2 сезон

2 сезон

iTunes

1 сезон

RePack

30

Ultimate

ВАЖНО

ИГРА 18+

pack

RePack

MK11
pack

Забери бонус

RePack

jed

!!Акция!!

Alien_Rage

RePack

fifa19

RePack

Assassins Creed: Odyssey

RePack

NEED FOR SPEED™ PAYBACK

4 сезон

9 сезон

Бесстыжие 9 сезон

Все сериалы

все сериалы на PB.wtf

RePack

FAR CRY 5
  

Зубная фея / Tooth Fairy / Toof (Луиса Уоррен) [2019, ужасы, HDRip-AVC] MVO - ExKinoRay piratbit.pw

Зубная фея через торрент piratbit.pw

Размер: 1.45 GB | Добавлен: 9 мес. назад | Торрент скачан:232 раза
Скачать  

05-02-2020 03:52 Зубная фея Скачать торрент  

Название: Зубная фея
Оригинальное название: Toof (Tooth Fairy)
Год выпуска: 2019
Жанр: Ужасы
Режиссер: Луиса Уоррен
В ролях: Клэр-Мария Фокс, Клодин-Хелен Амор, Мэнни Джай Монтана, Клейтон Фрейк, Елена Томас, Луиса Уоррен, Майк Келсон, Сьюзи О'Салливан, Люсия Эдвардс, Шон С. Филлипс

Описание: Дженнифер - 10-летняя девочка пережила страшную трагедию: за её зубами пришла кровожадная фея, которая не остановится ни перед чем, чтобы забрать зубы. Прошло много лет и вот её внуку угрожает та же опасность.

rating

Выпущено: Великобритания, ChampDog Films
Продолжительность: 01:25:42
Перевод: Профессиональный многоголосый
Субтитры: Английский

Формат: MKV
Качество: HDRip-AVC
Видео: MPEG-4 AVC, 720x306 (2.35:1), 23.976 fps, ~ 2029 Kbps, 0.328 bit/pixel
Аудио #01: 48 kHz, AC3, 2.0, 192 Kbps | MVO | RUS |
Аудио #02: 48 kHz, AC3, 2.0, 192 Kbps | Оригинал | ENG |
General
Unique ID : 174909001624886104965760000282984595667 (0x83963F95A657CD1CA8E87C00737240D3)
Complete name : F:Toof.2019.HDRip.AVC.ExKinoRay.mkv
Format : Matroska
Format version : Version 2
File size : 1.45 GiB
Duration : 1 h 25 min
Overall bit rate : 2 415 kb/s
Movie name : Toof 2019 from ExKinoRay
Encoded date : UTC 2020-02-05 02:54:53
Writing application : mkvmerge v5.6.0 ('Kenya Kane') built on May 27 2012 16:44:04
Writing library : libebml v1.2.3 + libmatroska v1.3.0
Attachments : poster.jpg

Video
ID : 1
Format : AVC
Format/Info : Advanced Video Codec
Format profile : High@L4.1
Format settings, CABAC : Yes
Format settings, ReFrames : 11 frames
Codec ID : V_MPEG4/ISO/AVC
Duration : 1 h 25 min
Bit rate : 2 029 kb/s
Width : 720 pixels
Height : 306 pixels
Display aspect ratio : 2.35:1
Frame rate mode : Constant
Frame rate : 23.976 (24000/1001) FPS
Original frame rate : 23.976 (23976/1000) FPS
Color space : YUV
Chroma subsampling : 4:2:0
Bit depth : 8 bits
Scan type : Progressive
Bits/(Pixel*Frame) : 0.384
Stream size : 1.19 GiB (82%)
Title : Enigma
Writing library : x264 core 152 r2851 ba24899
Encoding settings : cabac=1 / ref=11 / deblock=1:-2:-2 / analyse=0x3:0x113 / me=umh / subme=10 / psy=1 / psy_rd=1.05:0.10 / mixed_ref=1 / me_range=32 / chroma_me=1 / trellis=2 / 8x8dct=1 / cqm=0 / deadzone=21,11 / fast_pskip=0 / chroma_qp_offset=-3 / threads=10 / lookahead_threads=2 / sliced_threads=0 / nr=0 / decimate=0 / interlaced=0 / bluray_compat=0 / constrained_intra=0 / bframes=10 / b_pyramid=2 / b_adapt=2 / b_bias=0 / direct=3 / weightb=1 / open_gop=0 / weightp=2 / keyint=240 / keyint_min=23 / scenecut=40 / intra_refresh=0 / rc=2pass / mbtree=0 / bitrate=2029 / ratetol=1.0 / qcomp=0.60 / qpmin=0 / qpmax=51 / qpstep=4 / cplxblur=20.0 / qblur=0.5 / ip_ratio=1.40 / pb_ratio=1.30 / aq=1:1.00
Default : Yes
Forced : No
Color range : Limited
Color primaries : BT.709
Transfer characteristics : BT.709
Matrix coefficients : BT.709

Audio #1
ID : 2
Format : AC-3
Format/Info : Audio Coding 3
Mode extension : CM (complete main)
Format settings, Endianness : Big
Codec ID : A_AC3
Duration : 1 h 25 min
Bit rate mode : Constant
Bit rate : 192 kb/s
Channel(s) : 2 channels
Channel positions : Front: L R
Sampling rate : 48.0 kHz
Frame rate : 31.250 FPS (1536 spf)
Compression mode : Lossy
Stream size : 118 MiB (8%)
Title : MVO
Language : Russian
Default : Yes
Forced : No

Audio #2
ID : 3
Format : AC-3
Format/Info : Audio Coding 3
Mode extension : CM (complete main)
Format settings, Endianness : Big
Codec ID : A_AC3
Duration : 1 h 25 min
Bit rate mode : Constant
Bit rate : 192 kb/s
Channel(s) : 2 channels
Channel positions : Front: L R
Sampling rate : 48.0 kHz
Frame rate : 31.250 FPS (1536 spf)
Compression mode : Lossy
Stream size : 118 MiB (8%)
Language : English
Default : No
Forced : No

Text
ID : 4
Format : UTF-8
Codec ID : S_TEXT/UTF8
Codec ID/Info : UTF-8 Plain Text
Language : English
Default : No
Forced : No


Релиз от:

Автор релиза: piratbit.pw



Скачать Зубная фея через торрент https://d.radikal.ru/d06/2002/77/698c0c3b915c.jpg Скачать фильм Зубная фея через торрент бесплантно в хорошем качестве Описание: Дженнифер - 10-летняя девочка пережила страшную трагедию: за её зубами пришла кровожадная фея, которая не остановится ни перед ... 10 10 9
Info! Золотая раздача, скачанное не засчитывается.
Торрент: Зарегистрирован [2020-02-05 03:52] · скачан: 232 раз
Статус: T временная
Размер: 1.45 GB
Как cкачать? Как скачать Зубная фея через торрент | qTorrent

28-11-2019 20:33  

Отключить всю рекламу на сайте

06-02-2020 14:29 Зубная фея Скачать торрент  

Цитата:

Зубная фея / Tooth Fairy / Toof (Луиса Уоррен) [2019, ужасы, HDRip-AVC] MVO - ExKinoRay

Это Собчак?piratbit.pw



06-02-2020 14:46 Зубная фея Скачать торрент  

Покрышичник писал(а):

Цитата:

Зубная фея / Tooth Fairy / Toof (Луиса Уоррен) [2019, ужасы, HDRip-AVC] MVO - ExKinoRay

Это Собчак?

ахахаха))) точняк, это она ))))piratbit.pw



24-02-2020 11:23 Зубная фея Скачать торрент  

Еба рейтинг 2.4 я еще не видел видно дельное кинцоpiratbit.pw



    Дорогой пользователь! Огромная просьба, поблагодарите релизера, оцените раздачу и оставьте свои комментарий, если Вы скачали Зубная фея через торрент бесплатно! Внесите свою лепту в развитие PiratBit!
    Комментировать посты могут только пользователи прошедшие не сложную регистрацию
    Показать сообщения:    

    Зубная фея через торрент
    Скачать бесплатно Зубная фея
    Зубная фея скачать торрент
    Зубная фея смотреть онлайн
    Cкачать фильм Зубная фея бесплатно
    Зубная фея скачать торрент в хорошем качестве
    Зубная фея смотреть онлайн бесплатно в хорошем качестве


    Вы не можете начинать темы
    Вы не можете отвечать на сообщения
    Вы не можете редактировать свои сообщения
    Вы не можете удалять свои сообщения
    Вы не можете голосовать в опросах
    Вы не можете прикреплять файлы к сообщениям
    Вы можете скачивать файлы