Ссылка на приватное зеркало всего за 1$. Внимание количество ограничено!!!

iTunes

iTunes

iTunes

1

iTunes

iTunes

iTunes

iTunes

iTunes

30
pack

Новость дня

ВАЖНО

!!Акция!!

Alien_RageХит недели

RePack

Resident Evil 21

ИГРА 18+

pack

RePack

jed

!!Акция!!

Alien_Rage

RePack

fifa19

RePack

Assassins Creed: Odyssey

RePack

NEED FOR SPEED™ PAYBACK

4 сезон

9 сезон

Бесстыжие 9 сезон

Все сериалы

все сериалы на PB.wtf

RePack

FAR CRY 5
  

Проект «Синяя книга» / Проект засекречен / Project Blue Book / Сезон: 2 / Серии: 1-8 из 10 (Роберт Стромберг, Пит Трэвис, Норма Бэйли) [2020, фантастика, триллер, драма, детектив, WEB-DL 1080p] [MVO] (TVShows) piratbit.pw

Проект «Синяя книга» через торрент piratbit.pw

Раздают: 1 [ 0 KB/s ] Качают: 1 [ 0 KB/s ]
Размер: 17.5 GB | Добавлен: 5 д. назад | Торрент скачан:1 раз
Скачать  

26-01-2020 12:17 Проект «Синяя книга» Скачать торрент  

Проект «Синяя книга» | Проект засекречен | Project Blue Book

Год выпуска: 2020
Страна: США
Жанр: фантастика, триллер, драма, детектив
Продолжительность: ~ 00:44:00
Перевод: Профессиональный (многоголосый закадровый) | *TVShows*
Субтитры: английские

Режиссёр: Роберт Стромберг, Пит Трэвис, Норма Бэйли
В ролях: Эйдан Гиллен, Майкл Маларки, Лаура Меннелл, Ксения Соло, Майкл Харни, Нил МакДонаф, Роберт Джон Бёрк, Джилл Моррисон, Хезер Дорксен, Франческа Бьянчи
Описание: Пятидесятые годы прошлого века. Астроном Дж. Аллен Хинек и капитан ВВС США Майкл Квинн разбираются со свидетельствами появления НЛО. В ходе расследования они натыкаются на правительственный заговор, скрывающий от населения правду.
rating

Качество: WEB-DL 1080p
Формат: MKV
Видео: AVC, 1920x1040, 23,976 кадров/сек, ~7 500 Кбит/сек
Аудио: AC3, 48 kHz, 2 ch, 448 Кбит/сек - MVO
Аудио: E-AC3, 48 kHz, 2 ch, 224 Кбит/сек - ENG
General
Unique ID : 86147818141376136470669811804423415082 (0x40CF775CD44257B7E8A1F06BE39D652A)
Complete name : F:\Project.Blue.Book.S02.1080p.TVShows\Project.Blue.Book.S02E01.1080p.TVShows.mkv
Format : Matroska
Format version : Version 4 / Version 2
File size : 2.63 GiB
Duration : 45mn 32s
Overall bit rate : 8 261 Kbps
Encoded date : UTC 2020-01-26 10:26:37
Writing application : mkvmerge v33.1.0 ('Primrose') 64-bit
Writing library : libebml v1.3.7 + libmatroska v1.5.0

Video
ID : 1
Format : AVC
Format/Info : Advanced Video Codec
Format profile : High@L4
Format settings, CABAC : Yes
Format settings, ReFrames : 4 frames
Codec ID : V_MPEG4/ISO/AVC
Duration : 45mn 32s
Bit rate mode : Constant
Bit rate : 7 425 Kbps
Nominal bit rate : 10 000 Kbps
Width : 1 920 pixels
Height : 1 040 pixels
Display aspect ratio : 1.85:1
Frame rate mode : Constant
Frame rate : 23.976 fps
Color space : YUV
Chroma subsampling : 4:2:0
Bit depth : 8 bits
Scan type : Progressive
Bits/(Pixel*Frame) : 0.155
Stream size : 2.36 GiB (90%)
Default : Yes
Forced : No
Color range : Limited
Color primaries : BT.709
Transfer characteristics : BT.709
Matrix coefficients : BT.709

Audio #1
ID : 2
Format : AC-3
Format/Info : Audio Coding 3
Mode extension : CM (complete main)
Format settings, Endianness : Big
Codec ID : A_AC3
Duration : 45mn 32s
Bit rate mode : Constant
Bit rate : 448 Kbps
Channel(s) : 2 channels
Channel positions : Front: L R
Sampling rate : 48.0 KHz
Compression mode : Lossy
Stream size : 146 MiB (5%)
Title : TVShows
Language : Russian
Default : Yes
Forced : Yes

Audio #2
ID : 3
Format : E-AC-3
Format/Info : Audio Coding 3
Format settings, Endianness : Big
Codec ID : A_EAC3
Duration : 45mn 32s
Bit rate mode : Constant
Bit rate : 224 Kbps
Channel(s) : 2 channels
Channel positions : Front: L R
Sampling rate : 48.0 KHz
Compression mode : Lossy
Stream size : 73.0 MiB (3%)
Title : Original
Language : English
Default : No
Forced : No

Text
ID : 4
Format : UTF-8
Codec ID : S_TEXT/UTF8
Codec ID/Info : UTF-8 Plain Text
Title : English
Language : English
Default : No
Forced : No[/pre]

скриншот   скриншот   скриншот  

Внимание! Раздача ведётся путём добавления новых серий; при каждом добавлении создаётся новый торрент. Чтобы начать докачку новой серии, пользователям необходимо сделать следующее:
(1) остановить скачивание,
(2) удалить старый торрент у себя из клиента (старые серии удалять не надо),
(3) скачать новый торрент и запустить его у себя в клиенте вместо старого, при этом указать клиенту путь в старую папку куда и должно происходить скачивание новых серий.

Ваш клиент при этом должен произвести хеширование (проверку) старой папки (если не производит сам - помогите ему сделать это), и будет докачивать только те серии которых у вас ещё нет. Старые серии при этом не удаляются, а продолжают раздаваться!

Eсли вы уже удалили старые серии, то предотвратить повторную закачку старых серий можно, отжав галочку в соответствующих местах при запуске нового торрента. По возможности, желательно не удалять старые серии как можно дольше чтобы релизёр не столько продолжал раздавать старые серии, а смог сконцентрироваться на новых.
piratbit.pw



Скачать Проект «Синяя книга» через торрент https://i111.fastpic.ru/big/2020/0123/70/018e389a65fafe5e4ad15beb978c9270.jpg Скачать фильм Проект «Синяя книга» через торрент бесплантно в хорошем качестве Описание: Пятидесятые годы прошлого века. Астроном Дж. Аллен Хинек и капитан ВВС США Майкл Квинн разбираются со свидетельствами появления ... 7 10 3
Торрент: Зарегистрирован [2020-03-27 10:02] · скачан: 1 раз
Статус: √ проверено
Размер: 17.5 GB
Как cкачать? Как скачать Проект «Синяя книга» через торрент | qTorrent

% Раздел Тема Автор DL S | L
Зарубежные сериалы [ 4.07 GB ] Проект засекречен / Проект "Синяя книга" / Project Blue Book / Сезон: 2 / Серия: 1-8 из 10 [2020 WEB-DLRip] MVO [HDRezka] bober100 Скачать
1 | 0

28-11-2019 20:33  

Отключить всю рекламу на сайте

    Дорогой пользователь! Огромная просьба, поблагодарите релизера, оцените раздачу и оставьте свои комментарий, если Вы скачали Проект «Синяя книга» через торрент бесплатно! Внесите свою лепту в развитие PiratBit!
    Комментировать посты могут только пользователи прошедшие не сложную регистрацию
    Показать сообщения:    

    Проект «Синяя книга» через торрент
    Скачать бесплатно Проект «Синяя книга»
    Проект «Синяя книга» скачать торрент
    Проект «Синяя книга» смотреть онлайн
    Cкачать фильм Проект «Синяя книга» бесплатно
    Проект «Синяя книга» скачать торрент в хорошем качестве
    Проект «Синяя книга» смотреть онлайн бесплатно в хорошем качестве


    Вы не можете начинать темы
    Вы не можете отвечать на сообщения
    Вы не можете редактировать свои сообщения
    Вы не можете удалять свои сообщения
    Вы не можете голосовать в опросах
    Вы не можете прикреплять файлы к сообщениям
    Вы можете скачивать файлы