Ссылка на приватное зеркало нашего сайта всего за 1$. Внимание количество ограничено!!!

2 сезон

iTunes

1 сезон

1

iTunes

iTunes

iTunes

1 сезон

RePack

30

ИГРА 18+

pack

ВАЖНО

!!Акция!!

Alien_RageХит недели

RePack

MK11
pack

Забери бонус

RePack

jed

!!Акция!!

Alien_Rage

RePack

fifa19

RePack

Assassins Creed: Odyssey

RePack

NEED FOR SPEED™ PAYBACK

4 сезон

9 сезон

Бесстыжие 9 сезон

Все сериалы

все сериалы на PB.wtf

RePack

FAR CRY 5
  

Каприз / Caprice (Фрэнк Тэшлин) [1967, комедия, криминал, триллер, BDRip 1080 by msltel] MVO piratbit.pw

Каприз через торрент piratbit.pw

Размер: 9.52 GB | Добавлен: 8 мес. назад | Торрент скачан:1 раз
Скачать  

23-01-2020 05:33 Каприз Скачать торрент  

Название: Каприз
Оригинальное название: Caprice
Год выпуска: 1967
Страна: США
Жанр: комедия, криминал, триллер
Продолжительность: 01:37:36
Перевод: профессиональный многоголосый
Режиссер: Фрэнк Тэшлин
В ролях: Дорис Дэй, Ричард Харрис, Рэй Уолстон, Джек Крушен, Эдвард Малхейр, Лилия Скала, Ирэн Тсу, Ларри Д. Манн, Морис Марсак, Майкл Романофф

О фильме: В основе сюжета - шпиономания, сфера деятельности - производство косметики. Ведущий дизайнер английской косметической компании Патриция Фостер решает продать конкурентам секретную формулу одного из средств по уходу. Это становится известно её работодателю Джейсону Фоксу, и девушку немедленно увольняют. Вскоре после этого американский агент Кристофер Уайт, шпион в сфере производства косметики, делает Патриции заманчивое предложение: за хорошее вознаграждение предоставить ему секретную информацию компании Фокса. Фостер соглашается, не предполагая, чем грозит ей это решение...



Качество: BDRip 1080p
Формат: MKV
Видео: MPEG-4 AVC, 13.6 Mбит/с, 1920x808
Аудио 1: русский, AC3, 192 kbps, 2 ch, 48 kHz [закадровый многоголосый, 1 канал]
Аудио 2: английский, AC3, 192 kbps, 2 ch, 48 kHz [оригинал]
Субтитры 1: русские
Субтитры 2: английские
Главы/чаптеры
Общее
Уникальный идентификатор : 210181776858161782194535643162928776090 (0x9E1F89AC0D7A0A1FBED5F8091C44839A)
Полное имя : D:\Video\Каприз.1967.BDRip 1080p by msltel.mkv
Формат : Matroska
Версия формата : Version 4
Размер файла : 9,52 Гбайт
Продолжительность : 1 ч. 37 м.
Общий поток : 14,0 Мбит/сек
Название фильма : Rip by msltel
Дата кодирования : UTC 2020-01-23 02:12:14
Программа кодирования : mkvmerge v8.2.0 ('World of Adventure') 64bit
Библиотека кодирования : libebml v1.3.1 + libmatroska v1.4.2

Видео
Идентификатор : 1
Формат : AVC
Формат/Информация : Advanced Video Codec
Профиль формата : High@L4.1
Настройки формата : CABAC / 4 Ref Frames
Параметр CABAC формата : Да
Параметр RefFrames формата : 4 кадра
Идентификатор кодека : V_MPEG4/ISO/AVC
Продолжительность : 1 ч. 37 м.
Битрейт : 13,6 Мбит/сек
Ширина : 1920 пикселей
Высота : 808 пикселей
Соотношение сторон : 2,40:1
Режим частоты кадров : Постоянный
Частота кадров : 23,976 (24000/1001) кадра/сек
Цветовое пространство : YUV
Субдискретизация насыщенности : 4:2:0
Битовая глубина : 8 бит
Тип развёртки : Прогрессивная
Бит/(Пиксели*Кадры) : 0.365
Размер потока : 9,25 Гбайт (97%)
Библиотека кодирования : x264 core 157 r2935 545de2f
Настройки программы : cabac=1 / ref=4 / deblock=1:-2:-2 / analyse=0x3:0x113 / me=umh / subme=11 / psy=1 / psy_rd=1.00:0.15 / mixed_ref=1 / me_range=32 / chroma_me=1 / trellis=2 / 8x8dct=1 / cqm=0 / deadzone=21,11 / fast_pskip=0 / chroma_qp_offset=-3 / threads=6 / lookahead_threads=1 / sliced_threads=0 / nr=0 / decimate=1 / interlaced=0 / bluray_compat=0 / constrained_intra=0 / bframes=9 / b_pyramid=2 / b_adapt=2 / b_bias=0 / direct=1 / weightb=1 / open_gop=0 / weightp=2 / keyint=230 / keyint_min=23 / scenecut=40 / intra_refresh=0 / rc_lookahead=40 / rc=crf / mbtree=0 / crf=20.0 / qcomp=0.60 / qpmin=0 / qpmax=69 / qpstep=4 / vbv_maxrate=50000 / vbv_bufsize=62500 / crf_max=0.0 / nal_hrd=none / filler=0 / ip_ratio=1.40 / pb_ratio=1.30 / aq=1:1.00
Язык : English
Default : Да
Forced : Нет

Аудио #1
Идентификатор : 2
Формат : AC-3
Формат/Информация : Audio Coding 3
Коммерческое название : Dolby Digital
Идентификатор кодека : A_AC3
Продолжительность : 1 ч. 37 м.
Вид битрейта : Постоянный
Битрейт : 192 Кбит/сек
Каналы : 2 канала
ChannelLayout : L R
Частота : 48,0 КГц
Частота кадров : 31,250 кадров/сек (1536 SPF)
Метод сжатия : С потерями
Размер потока : 134 Мбайт (1%)
Заголовок : MVO 1 канал
Язык : Russian
ServiceKind/String : Complete Main
Default : Да
Forced : Нет

Аудио #2
Идентификатор : 3
Формат : AC-3
Формат/Информация : Audio Coding 3
Коммерческое название : Dolby Digital
Идентификатор кодека : A_AC3
Продолжительность : 1 ч. 37 м.
Вид битрейта : Постоянный
Битрейт : 192 Кбит/сек
Каналы : 2 канала
ChannelLayout : L R
Частота : 48,0 КГц
Частота кадров : 31,250 кадров/сек (1536 SPF)
Метод сжатия : С потерями
Размер потока : 134 Мбайт (1%)
Заголовок : original
Язык : English
ServiceKind/String : Complete Main
Default : Нет
Forced : Нет

Текст #1
Идентификатор : 4
Формат : UTF-8
Идентификатор кодека : S_TEXT/UTF8
Идентификатор кодека/Информация : UTF-8 Plain Text
Продолжительность : 1 ч. 34 м.
Битрейт : 117 бит/сек
ElementCount : 1123
Размер потока : 81,4 Кбайт (0%)
Заголовок : русские
Язык : Russian
Default : Нет
Forced : Нет

Текст #2
Идентификатор : 5
Формат : UTF-8
Идентификатор кодека : S_TEXT/UTF8
Идентификатор кодека/Информация : UTF-8 Plain Text
Продолжительность : 1 ч. 36 м.
Битрейт : 65 бит/сек
ElementCount : 1247
Размер потока : 46,2 Кбайт (0%)
Заголовок : английские
Язык : English
Default : Нет
Forced : Нет

Меню
00:00:00.000 : en:Chapter 01
00:07:27.405 : en:Chapter 02
00:12:51.854 : en:Chapter 03
00:18:42.412 : en:Chapter 04
00:27:10.211 : en:Chapter 05
00:40:56.620 : en:Chapter 06
00:48:51.511 : en:Chapter 07
00:58:54.697 : en:Chapter 08
01:13:19.770 : en:Chapter 09
01:19:33.935 : en:Chapter 10
01:27:53.768 : en:Chapter 11
01:35:53.706 : en:Chapter 12
piratbit.pw



Скачать Каприз через торрент https://d.radikal.ru/d21/2001/e9/e81f427440bd.jpg Скачать фильм Каприз через торрент бесплантно в хорошем качестве О фильме: В основе сюжета - шпиономания, сфера деятельности - косметики. Ведущий дизайнер английской косметической компании ... 5 10 1
Info! Золотая раздача, скачанное не засчитывается.
Торрент: Зарегистрирован [2020-01-23 05:33] · скачан: 1 раз
Статус: √ проверено
Размер: 9.52 GB
Как cкачать? Как скачать Каприз через торрент | qTorrent

% Раздел Тема Автор DL S | L
Фильмы до 2000 г. [ 3.52 GB ] Каприз / Caprice [1967 BDRip 720 by msltel] MVO msltel Скачать
1 | 0
T Фильмы 2015 [DVDrip, WEB-DLRip, HDrip] [ 748 MB ] Каприз / Caprice [2015 Мело WEB-DLRip by _Один_777] MVO Один 777 Скачать
1 | 0
T Фильмы 2015 [DVDrip, WEB-DLRip, HDrip] [ 1.45 GB ] Каприз / Caprice [2015 Мело WEB-DLRip by _Один_777] MVO Один 777 Скачать
1 | 0
T Фильмы 2015 [DVDrip, WEB-DLRip, HDrip] [ 1.46 GB ] Каприз / Caprice [2015 WEB-DLRip] [MVO] killermax2013 Скачать
1 | 0

28-11-2019 20:33  

Отключить всю рекламу на сайте

    Дорогой пользователь! Огромная просьба, поблагодарите релизера, оцените раздачу и оставьте свои комментарий, если Вы скачали Каприз через торрент бесплатно! Внесите свою лепту в развитие PiratBit!
    Комментировать посты могут только пользователи прошедшие не сложную регистрацию
    Показать сообщения:    

    Каприз через торрент
    Скачать бесплатно Каприз
    Каприз скачать торрент
    Каприз смотреть онлайн
    Cкачать фильм Каприз бесплатно
    Каприз скачать торрент в хорошем качестве
    Каприз смотреть онлайн бесплатно в хорошем качестве


    Вы не можете начинать темы
    Вы не можете отвечать на сообщения
    Вы не можете редактировать свои сообщения
    Вы не можете удалять свои сообщения
    Вы не можете голосовать в опросах
    Вы не можете прикреплять файлы к сообщениям
    Вы можете скачивать файлы