Ссылка на приватное зеркало всего за 1$. Внимание количество ограничено!!!

iTunes

1+1

iTunes

мы

iTunes

1

WEB-DLRip

Джокер

Пифагор

Ведьмак / The Witcher сериал

iTunes

ПШазам

iTunes

Оно 2

iTunes

30
pack

Новость дня

ВАЖНО

!!Акция!!

Alien_RageХит недели

RePack

Resident Evil 21

ИГРА 18+

pack

RePack

jed

!!Акция!!

Alien_Rage

RePack

fifa19

RePack

Assassins Creed: Odyssey

RePack

NEED FOR SPEED™ PAYBACK

4 сезон

9 сезон

Бесстыжие 9 сезон

Все сериалы

все сериалы на PB.wtf

RePack

FAR CRY 5
  

Проект засекречен / Проект "Синяя книга" / Project Blue Book / Сезон: 2 / Серия: 1-10 из 10 (Роберт Стромберг, Пит Трэвис, Норма Бэйли) [2020, фантастика, триллер, драма, детектив, WEBRip 1080p] DVO [Gears Media] piratbit.pw

Проект засекречен через торрент piratbit.pw

Качают: 2 [ 0 KB/s ]
Размер: 28.93 GB | Добавлен: 3 д. назад | Торрент скачан:1 раз
Скачать  

23-01-2020 02:38 Проект засекречен Скачать торрент  

Проект засекречен | Проект "Синяя книга" | Project Blue Book
Год выпуска: 2020
Страна: США, Канада
Жанр: фантастика, триллер, драма, детектив
Продолжительность: ~ 00:46:00
Перевод: Профессиональный (двухголосый) | Gears Media
Субтитры: отсутствуют

Режиссер: Роберт Стромберг, Пит Трэвис, Норма Бэйли

rating

В ролях: Эйдан Гиллен, Майкл Маларки, Лаура Меннелл, Ксения Соло, Нил МакДонаф, Майкл Харни, Николас Холмс, Джилл Моррисон, Иэн Трейси, Роберт Джон Бёрк и другие.

Описание: Пятидесятые годы прошлого века. Астроном Дж. Аллен Хинек и капитан ВВС США Майкл Квинн разбираются со свидетельствами появления НЛО. В ходе расследования они натыкаются на правительственный заговор, скрывающий от населения правду.

Качество: WEBRip 1080p
Формат: MKV

Видео: X264, 1920×1080 at 23.976 fps, ~9000 kbps avg
Аудио: 48 kHz, AC3, 2/0 (L,R) ch, ~384 kbps
скриншот  скриншот  скриншот  

Общее
Уникальный идентификатор : 170280097243842083613352273426200619116 (0x801AC0FA72466A09AF7572DD92D3686C)
Полное имя : C:\Project Blue Book S02 (2020) 1080p WEBRip [Gears Media]\Project Blue Book S02E01 (2020) 1080p WEBRip [Gears Media].mkv
Формат : Matroska
Версия формата : Version 4
Размер файла : 2,99 Гбайт
Продолжительность : 46 м. 4 с.
Общий поток : 9293 Кбит/сек
Дата кодирования : UTC 2020-01-22 21:41:22
Программа кодирования : mkvmerge v39.0.0 ('In The Waiting Line') 64-bit
Библиотека кодирования : libebml v1.3.9 + libmatroska v1.5.2

Видео
Идентификатор : 1
Формат : AVC
Формат/Информация : Advanced Video Codec
Профиль формата : High@L4.1
Настройки формата : CABAC / 4 Ref Frames
Параметр CABAC формата : Да
Параметр RefFrames формата : 4 кадра
Идентификатор кодека : V_MPEG4/ISO/AVC
Продолжительность : 46 м. 4 с.
Битрейт : 8724 Кбит/сек
Ширина : 1920 пикселей
Высота : 1080 пикселей
Соотношение сторон : 16:9
Режим частоты кадров : Постоянный
Частота кадров : 23,976 (24000/1001) кадра/сек
Цветовое пространство : YUV
Субдискретизация насыщенности : 4:2:0
Битовая глубина : 8 бит
Тип развёртки : Прогрессивная
Бит/(Пиксели*Кадры) : 0.175
Размер потока : 2,81 Гбайт (94%)
Язык : English
Default : Да
Forced : Нет
Цветовой диапазон : Limited
Основные цвета : BT.709
Характеристики трансфера : BT.709
Коэффициенты матрицы : BT.709

Аудио
Идентификатор : 2
Формат : AC-3
Формат/Информация : Audio Coding 3
Коммерческое название : Dolby Digital
Идентификатор кодека : A_AC3
Продолжительность : 46 м. 4 с.
Вид битрейта : Постоянный
Битрейт : 384 Кбит/сек
Каналы : 2 канала
ChannelLayout : L R
Частота : 48,0 КГц
Частота кадров : 31,250 кадров/сек (1536 SPF)
Битовая глубина : 16 бит
Метод сжатия : С потерями
Размер потока : 127 Мбайт (4%)
Язык : Russian
ServiceKind/String : Complete Main
Default : Да
Forced : Да

Внимание! Раздача ведётся путём добавления новых серий; при каждом добавлении создаётся новый торрент. Чтобы начать докачку новой серии, пользователям необходимо сделать следующее:
(1) остановить скачивание,
(2) удалить старый торрент у себя из клиента (старые серии удалять не надо),
(3) скачать новый торрент и запустить его у себя в клиенте вместо старого, при этом указать клиенту путь в старую папку куда и должно происходить скачивание новых серий.

Ваш клиент при этом должен произвести хеширование (проверку) старой папки (если не производит сам - помогите ему сделать это), и будет докачивать только те серии которых у вас ещё нет. Старые серии при этом не удаляются, а продолжают раздаваться!

Eсли вы уже удалили старые серии, то предотвратить повторную закачку старых серий можно, отжав галочку в соответсвующих местах при запуске нового торрента. По возможности, желательно не удалять старые серии как можно дольше чтобы релизёр не столько продолжал раздавать старые серии, а смог сконцентрироваться на новых.
piratbit.pw



Скачать Проект засекречен через торрент https://i107.fastpic.ru/big/2019/0109/c4/2f0ac7b27dec0cec04d65bf1489759c4.jpg Скачать фильм Проект засекречен через торрент бесплантно в хорошем качестве Описание: Пятидесятые годы прошлого века. Астроном Дж. Аллен Хинек и капитан ВВС США Майкл Квинн разбираются со свидетельствами появления ... 8 10 4
Торрент: Зарегистрирован [2020-03-25 20:12] · скачан: 1 раз
Статус: √ проверено
Размер: 28.93 GB
Как cкачать? Как скачать Проект засекречен через торрент | qTorrent

28-11-2019 20:33  

Отключить всю рекламу на сайте

    Дорогой пользователь! Огромная просьба, поблагодарите релизера, оцените раздачу и оставьте свои комментарий, если Вы скачали Проект засекречен через торрент бесплатно! Внесите свою лепту в развитие PiratBit!
    Комментировать посты могут только пользователи прошедшие не сложную регистрацию
    Показать сообщения:    

    Проект засекречен через торрент
    Скачать бесплатно Проект засекречен
    Проект засекречен скачать торрент
    Проект засекречен смотреть онлайн
    Cкачать фильм Проект засекречен бесплатно
    Проект засекречен скачать торрент в хорошем качестве
    Проект засекречен смотреть онлайн бесплатно в хорошем качестве


    Вы не можете начинать темы
    Вы не можете отвечать на сообщения
    Вы не можете редактировать свои сообщения
    Вы не можете удалять свои сообщения
    Вы не можете голосовать в опросах
    Вы не можете прикреплять файлы к сообщениям
    Вы можете скачивать файлы