Ссылка на приватное зеркало всего за 1$. Внимание количество ограничено!!!

iTunes

1+1

iTunes

мы

iTunes

1

WEB-DLRip

Джокер

Пифагор

Ведьмак / The Witcher сериал

iTunes

ПШазам

iTunes

Оно 2

iTunes

30
pack

Новость дня

ВАЖНО

!!Акция!!

Alien_RageХит недели

RePack

Resident Evil 21

ИГРА 18+

pack

RePack

jed

!!Акция!!

Alien_Rage

RePack

fifa19

RePack

Assassins Creed: Odyssey

RePack

NEED FOR SPEED™ PAYBACK

4 сезон

9 сезон

Бесстыжие 9 сезон

Все сериалы

все сериалы на PB.wtf

RePack

FAR CRY 5
  

Проект засекречен / Проект "Синяя книга" / Project Blue Book / Сезон: 2 / Серия: 1-10 из 10 (Роберт Стромберг, Пит Трэвис, Норма Бэйли) [2020, фантастика, триллер, драма, детектив, WEBRip] DVO [Gears Media] piratbit.pw

Проект засекречен через торрент piratbit.pw

Раздают: 2 [ 120 KB/s ] Качают: 2 [ 0 KB/s ]
Размер: 5.05 GB | Добавлен: 3 д. назад | Торрент скачан:5 раз
Скачать  

23-01-2020 02:38 Проект засекречен Скачать торрент  

Проект засекречен | Проект "Синяя книга" | Project Blue Book
Год выпуска: 2020
Страна: США, Канада
Жанр: фантастика, триллер, драма, детектив
Продолжительность: ~ 00:46:00
Перевод: Профессиональный (двухголосый) | Gears Media
Субтитры: отсутствуют

Режиссер: Роберт Стромберг, Пит Трэвис, Норма Бэйли

rating

В ролях: Эйдан Гиллен, Майкл Маларки, Лаура Меннелл, Ксения Соло, Нил МакДонаф, Майкл Харни, Николас Холмс, Джилл Моррисон, Иэн Трейси, Роберт Джон Бёрк и другие.

Описание: Пятидесятые годы прошлого века. Астроном Дж. Аллен Хинек и капитан ВВС США Майкл Квинн разбираются со свидетельствами появления НЛО. В ходе расследования они натыкаются на правительственный заговор, скрывающий от населения правду.

Качество: WEBRip
Формат: AVI

Видео: 720x400 at 23.976 fps, ~1500 kbps avg
Аудио: MP3, 128 Kbps, 2 channels
скриншот  скриншот  скриншот  

Общее
Полное имя : C:\Project Blue Book S02 (2020) WEBRip [Gears Media]\Project Blue Book S02E01 (2020) WEBRip [Gears Media].avi
Формат : AVI
Формат/Информация : Audio Video Interleave
Размер файла : 535 Мбайт
Продолжительность : 46 м. 5 с.
Общий поток : 1624 Кбит/сек
Программа кодирования : Lavf58.29.100

Видео
Идентификатор : 0
Формат : MPEG-4 Visual
Профиль формата : Advanced Simple@L5
Настройки формата : BVOP1
Параметр BVOP формата : 1
Параметр QPel формата : Нет
Параметр GMC формата : Без точки перехода
Параметр матрицы формата : Default (H.263)
Идентификатор кодека : XVID
Идентификатор кодека/Подсказка : XviD
Продолжительность : 46 м. 4 с.
Битрейт : 1423 Кбит/сек
Ширина : 720 пикселей
Высота : 400 пикселей
Соотношение сторон : 16:9
Частота кадров : 23,976 (24000/1001) кадра/сек
Цветовое пространство : YUV
Субдискретизация насыщенности : 4:2:0
Битовая глубина : 8 бит
Тип развёртки : Прогрессивная
Метод сжатия : С потерями
Бит/(Пиксели*Кадры) : 0.206
Размер потока : 469 Мбайт (88%)
Библиотека кодирования : XviD 67

Аудио
Идентификатор : 1
Формат : MPEG Audio
Версия формата : Version 1
Профиль формата : Layer 3
Настройки формата : Joint stereo / MS Stereo
Идентификатор кодека : 55
Идентификатор кодека/Подсказка : MP3
Продолжительность : 46 м. 5 с.
Вид битрейта : Постоянный
Битрейт : 128 Кбит/сек
Каналы : 2 канала
Частота : 48,0 КГц
Метод сжатия : С потерями
Размер потока : 42,2 Мбайт (8%)
Выравнивание : Соединение по промежуткам
Библиотека кодирования : LAME3.100UUi@)UÑy"Z

Внимание! Раздача ведётся путём добавления новых серий; при каждом добавлении создаётся новый торрент. Чтобы начать докачку новой серии, пользователям необходимо сделать следующее:
(1) остановить скачивание,
(2) удалить старый торрент у себя из клиента (старые серии удалять не надо),
(3) скачать новый торрент и запустить его у себя в клиенте вместо старого, при этом указать клиенту путь в старую папку куда и должно происходить скачивание новых серий.

Ваш клиент при этом должен произвести хеширование (проверку) старой папки (если не производит сам - помогите ему сделать это), и будет докачивать только те серии которых у вас ещё нет. Старые серии при этом не удаляются, а продолжают раздаваться!

Eсли вы уже удалили старые серии, то предотвратить повторную закачку старых серий можно, отжав галочку в соответсвующих местах при запуске нового торрента. По возможности, желательно не удалять старые серии как можно дольше чтобы релизёр не столько продолжал раздавать старые серии, а смог сконцентрироваться на новых.
piratbit.pw



Скачать Проект засекречен через торрент https://i107.fastpic.ru/big/2019/0109/c4/2f0ac7b27dec0cec04d65bf1489759c4.jpg Скачать фильм Проект засекречен через торрент бесплантно в хорошем качестве Описание: Пятидесятые годы прошлого века. Астроном Дж. Аллен Хинек и капитан ВВС США Майкл Квинн разбираются со свидетельствами появления ... 10 10 2
Торрент: Зарегистрирован [2020-03-26 00:35] · скачан: 5 раз
Статус: √ проверено
Размер: 5.05 GB
Как cкачать? Как скачать Проект засекречен через торрент | qTorrent

28-11-2019 20:33  

Отключить всю рекламу на сайте

    Дорогой пользователь! Огромная просьба, поблагодарите релизера, оцените раздачу и оставьте свои комментарий, если Вы скачали Проект засекречен через торрент бесплатно! Внесите свою лепту в развитие PiratBit!
    Комментировать посты могут только пользователи прошедшие не сложную регистрацию
    Показать сообщения:    

    Проект засекречен через торрент
    Скачать бесплатно Проект засекречен
    Проект засекречен скачать торрент
    Проект засекречен смотреть онлайн
    Cкачать фильм Проект засекречен бесплатно
    Проект засекречен скачать торрент в хорошем качестве
    Проект засекречен смотреть онлайн бесплатно в хорошем качестве


    Вы не можете начинать темы
    Вы не можете отвечать на сообщения
    Вы не можете редактировать свои сообщения
    Вы не можете удалять свои сообщения
    Вы не можете голосовать в опросах
    Вы не можете прикреплять файлы к сообщениям
    Вы можете скачивать файлы