Ссылка на приватное зеркало всего за 1$. Внимание количество ограничено!!!

iTunes

1+1

iTunes

мы

iTunes

1

WEB-DLRip

Джокер

Пифагор

Ведьмак / The Witcher сериал

iTunes

ПШазам

iTunes

Оно 2

iTunes

30
pack

Новость дня

ВАЖНО

!!Акция!!

Alien_RageХит недели

RePack

Resident Evil 21

ИГРА 18+

pack

RePack

jed

!!Акция!!

Alien_Rage

RePack

fifa19

RePack

Assassins Creed: Odyssey

RePack

NEED FOR SPEED™ PAYBACK

4 сезон

9 сезон

Бесстыжие 9 сезон

Все сериалы

все сериалы на PB.wtf

RePack

FAR CRY 5
  

Чужак / The Outsider / Сезон: 1 / Серии: 1-10 из 10 (Эндрю Бернштейн, Джейсон Бейтман, Шарлотта Брандстром) [2020, Триллер, детектив, криминал, WEBRip] MVO [TVShows] piratbit.pw

Чужак через торрент piratbit.pw

Раздают: 4 [ 1 MB/s ]
Размер: 8.59 GB | Добавлен: 3 д. назад | Торрент скачан:8 раз
Скачать  

22-01-2020 19:12 Чужак Скачать торрент  

Чужак | The Outsider
Год выпуска: 2020
Страна: США
Жанр: Триллер, детектив, криминал
Продолжительность: ~ 00:55:00 серия
Перевод: Профессиональный (многоголосый) | TVShows
Субтитры: отсутствуют

Режиссер: Эндрю Бернштейн, Джейсон Бейтман, Шарлотта Брандстром

rating


В ролях: Юл Васкес, Джейсон Бейтман, Джереми Бобб, Синтиа Эриво, Джон Геттье, Марк Менчака, Бен Мендельсон, Джулианна Николсон, Дерек Сесил, Билл Кэмп

Описание: Мужчину обвиняют в убийстве мальчика. Отпечатки пальцев указывают на него, но если верить записям с камер, то он в момент убийства находился в 90 км от места преступления. Детектив, расследующий дело, начинает подозревать, что в случившемся замешано нечто сверхъестественное.

Качество: WEBRip
Формат: AVI

Видео: XVID, 704x352, 23.976 fps, ~2000 kbps avg, 0.33 bit/pixe
Аудио Rus: AC3, 48.0 KHz, 6 channels, 384 kbps
скриншот  скриншот  скриншот  скриншот  

General
Complete name : D:\Сериалы\Чужак (Сезон 1) TVShows\The.Outsider.S01E01.WEBRip.RGzsRutracker.Celta88.avi
Format : AVI
Format/Info : Audio Video Interleave
File size : 1.00 GiB
Duration : 59 min 59 s
Overall bit rate : 2 393 kb/s
Writing application : VirtualDubMod 1.5.10.2 (build 2540/release)
Writing library : VirtualDubMod build 2540/release

Video
ID : 0
Format : MPEG-4 Visual
Format profile : Advanced Simple@L5
Format settings, BVOP : 1
Format settings, QPel : No
Format settings, GMC : No warppoints
Format settings, Matrix : Custom
Codec ID : XVID
Codec ID/Hint : XviD
Duration : 59 min 59 s
Bit rate : 2 000 kb/s
Width : 704 pixels
Height : 352 pixels
Display aspect ratio : 2.000
Frame rate : 23.976 (24000/1001) FPS
Color space : YUV
Chroma subsampling : 4:2:0
Bit depth : 8 bits
Scan type : Progressive
Compression mode : Lossy
Bits/(Pixel*Frame) : 0.337
Stream size : 858 MiB (84%)
Writing library : XviD 67

Audio
ID : 1
Format : AC-3
Format/Info : Audio Coding 3
Mode extension : CM (complete main)
Format settings, Endianness : Big
Codec ID : 2000
Duration : 59 min 59 s
Bit rate mode : Constant
Bit rate : 384 kb/s
Channel(s) : 6 channels
Channel positions : Front: L C R, Side: L R, LFE
Sampling rate : 48.0 kHz
Frame rate : 31.250 FPS (1536 spf)
Bit depth : 16 bits
Compression mode : Lossy
Stream size : 165 MiB (16%)
Alignment : Split accross interleaves
Interleave, duration : 42 ms (1.00 video frame)
Interleave, preload duratio : 500 ms

Внимание! Раздача ведётся путём добавления новых серий; при каждом добавлении создаётся новый торрент.
Чтобы начать докачку новой серии, пользователям необходимо сделать следующее:
1. Остановить скачивание.
2. Удалить старый торрент у себя из клиента (старые серии удалять не надо).
3. Скачать новый торрент и запустить его у себя в клиенте вместо старого, при этом указать клиенту путь в старую папку куда и должно происходить скачивание новых серий.
Ваш клиент при этом должен произвести хеширование (проверку) старой папки (если не производит сам - помогите ему сделать это), и будет докачивать только те серии которых у вас ещё нет. Старые серии при этом не удаляются, а продолжают раздаваться!
Eсли вы уже удалили старые серии, то предотвратить повторную закачку старых серий можно, отжав галочку в соответствующих местах при запуске нового торрента.
piratbit.pw



Скачать Чужак через торрент https://i111.fastpic.ru/big/2020/0116/66/c6d6cfcfbd128a61d09079bdaa5f7a66.png Скачать фильм Чужак через торрент бесплантно в хорошем качестве Описание: Мужчину обвиняют в убийстве мальчика. Отпечатки пальцев указывают на него, но если верить записям с камер, то он в момент ... 10 10 4
Торрент: Зарегистрирован [2020-03-26 01:25] · скачан: 8 раз
Статус: √ проверено
Размер: 8.59 GB
Как cкачать? Как скачать Чужак через торрент | qTorrent

% Раздел Тема Автор DL S | L
Зарубежные сериалы [ 30.99 GB ] Чужак / The Outsider / Сезон: 1 / Серии: 1-10 из 10 [2020 WEB-DL 1080p] MVO [NewStudio] bober100 Скачать
3 | 1
Зарубежные сериалы [ 30.99 GB ] Чужак / The Outsider / Сезон: 1 / Серии: 1-10 из 10 [2020 WEB-DL 1080p] MVO [AlexFilm] bober100 Скачать
2 | 1
Зарубежные сериалы [ 3.37 GB ] Чужак / The Outsider / Сезон: 1 / Серии: 1- из 10 [2020 WEB-DL 1080p] 2xMVO [AlexFilm NewStudio] bober100 Скачать
1 | 0
Зарубежные сериалы [ 12.87 GB ] Чужак / The Outsider / Сезон: 1 / Серии: 1-10 из 10 [2020 WEB-DL 720p] MVO [AlexFilm] bober100 Скачать
15 | 3
Зарубежные сериалы [ 30.22 GB ] Чужак / The Outsider / Сезон: 1 / Серии: 1-10 из 10 [2020 WEB-DL 1080p] MVO [Кравец-Рекордз / Amedia] bober100 Скачать
4 | 6
Зарубежные сериалы [ 7.99 GB ] Чужак / The Outsider / Сезон: 1 / Серии: 1-10 из 10 [2020 WEB-DLRip] MVO [NewStudio] bober100 Скачать
14 | 5
Зарубежные сериалы [ 17.98 GB ] Чужак / The Outsider / Сезон: 1 / Серии: 1-10 из 10 [2020 WEB-DL 720p] 4xMVO bober100 Скачать
2 | 0

28-11-2019 20:33  

Отключить всю рекламу на сайте

    Дорогой пользователь! Огромная просьба, поблагодарите релизера, оцените раздачу и оставьте свои комментарий, если Вы скачали Чужак через торрент бесплатно! Внесите свою лепту в развитие PiratBit!
    Комментировать посты могут только пользователи прошедшие не сложную регистрацию
    Показать сообщения:    

    Чужак через торрент
    Скачать бесплатно Чужак
    Чужак скачать торрент
    Чужак смотреть онлайн
    Cкачать фильм Чужак бесплатно
    Чужак скачать торрент в хорошем качестве
    Чужак смотреть онлайн бесплатно в хорошем качестве


    Вы не можете начинать темы
    Вы не можете отвечать на сообщения
    Вы не можете редактировать свои сообщения
    Вы не можете удалять свои сообщения
    Вы не можете голосовать в опросах
    Вы не можете прикреплять файлы к сообщениям
    Вы можете скачивать файлы