Ссылка на приватное зеркало нашего сайта всего за 1$. Внимание количество ограничено!!!

2 сезон

iTunes

1 сезон

1

2 сезон

2 сезон

iTunes

1 сезон

RePack

30

Ultimate

ВАЖНО

ИГРА 18+

pack

RePack

MK11
pack

Забери бонус

RePack

jed

!!Акция!!

Alien_Rage

RePack

fifa19

RePack

Assassins Creed: Odyssey

RePack

NEED FOR SPEED™ PAYBACK

4 сезон

9 сезон

Бесстыжие 9 сезон

Все сериалы

все сериалы на PB.wtf

RePack

FAR CRY 5
  

Сиротский Бруклин / Motherless Brooklyn (Эдвард Нортон) [2019, драма, криминал, BDRip-AVC от OlLanDGroup] DUB [iTunes] piratbit.pw

Сиротский Бруклин через торрент piratbit.pw

Размер: 1.45 GB | Добавлен: 10 мес. назад | Торрент скачан:151 раз
Скачать  

21-01-2020 16:18 Сиротский Бруклин Скачать торрент  

Сиротский Бруклин | Motherless Brooklyn Год выпуска: 2019
Страна: США
Студия: Class 5 Films, Odd Lot Entertainment, Warner Bros. Pictures
Жанр: драма, криминал
Продолжительность: 02:24:21
Перевод: Дублированный | iTunes
Субтитры: Russian (Forced, Full), English (Full, SDH)

Режиссер: Эдвард Нортон


rating

В ролях: Эдвард Нортон, Гугу Эмбата-Ро, Алек Болдуин, Бобби Каннавале, Уиллем Дефо, Брюс Уиллис, Итан Сапли, Черри Джонс, Даллас Робертс, Джош Пэйс

Описание: Лайонел Эссрог, одинокий частный детектив с синдромом Туретта, решается начать расследование убийства своего наставника и единственного друга Фрэнка Минны. У него есть лишь несколько зацепок и сила разума, одержимого поставленной целью, чтобы распутать клубок тщательно скрываемых тайн, которые сохраняют баланс сил в самом Нью-Йорке. Расследование заводит его в джазовые клубы Гарлема, где рекой течет джин, опасные трущобы Бруклина и, наконец, позолоченные залы политической элиты мегаполиса. Он бросает вызов гангстерам, коррупции и самому опасному человеку в городе, чтобы очистить имя своего друга и спасти женщину, которая может спасти его самого.

Качество: BDRip-AVC
Формат: MKV
Источник: |Motherless.Brooklyn.2019.BDRemux.TeamHD-potroks|
Видео: 720x390 (1.85:1), 23.976 fps, x264 ~1249 kbps avg, 0.186 bit/pixel
Аудио: 48 kHz, AC3 Dolby Digital, 2/0 (L,R) ch, ~192 kbps
General
Unique ID : 221438205503910212811470855881697779656 (0xA6977273E8C7AC94B2F488CD0D4BDFC8)
Complete name : D:\OlLanDGroup\iTunes\Motherless.Brooklyn.2019.BDRip(AVC).OlLanDGroup.mkv
Format : Matroska
Format version : Version 4
File size : 1.45 GiB
Duration : 2 h 24 min
Overall bit rate : 1 441 kb/s
Movie name : Motherless.Brooklyn.2019.BDRip(AVC).OlLanDGroup#Skandar#
Encoded date : UTC 2020-01-21 12:10:25
Writing application : mkvmerge v31.0.0 ('Dolores In A Shoestand') 64-bit
Writing library : libebml v1.3.6 + libmatroska v1.4.9

Video
ID : 1
Format : AVC
Format/Info : Advanced Video Codec
Format profile : High@L4.1
Format settings : CABAC / 10 Ref Frames
Format settings, CABAC : Yes
Format settings, ReFrames : 10 frames
Codec ID : V_MPEG4/ISO/AVC
Duration : 2 h 24 min
Bit rate : 1 249 kb/s
Width : 720 pixels
Height : 390 pixels
Display aspect ratio : 1.85:1
Frame rate mode : Constant
Frame rate : 23.976 (24000/1001) FPS
Color space : YUV
Chroma subsampling : 4:2:0
Bit depth : 8 bits
Scan type : Progressive
Bits/(Pixel*Frame) : 0.186
Stream size : 1.26 GiB (87%)
Title : Motherless.Brooklyn.2019.BDRip(AVC).OlLanDGroup#Skandar#
Writing library : x264 core 146 r2538 121396c
Encoding settings : cabac=1 / ref=10 / deblock=1:-3:-3 / analyse=0x3:0x133 / me=umh / subme=11 / psy=1 / psy_rd=0.97:0.05 / mixed_ref=1 / me_range=48 / chroma_me=1 / trellis=2 / 8x8dct=1 / cqm=0 / deadzone=21,11 / fast_pskip=0 / chroma_qp_offset=-3 / threads=6 / lookahead_threads=1 / sliced_threads=0 / nr=0 / decimate=0 / interlaced=0 / bluray_compat=0 / constrained_intra=0 / bframes=11 / b_pyramid=2 / b_adapt=2 / b_bias=0 / direct=3 / weightb=1 / open_gop=0 / weightp=2 / keyint=240 / keyint_min=23 / scenecut=40 / intra_refresh=0 / rc_lookahead=40 / rc=2pass / mbtree=0 / bitrate=1249 / ratetol=1.0 / qcomp=0.60 / qpmin=0 / qpmax=69 / qpstep=4 / cplxblur=20.0 / qblur=0.5 / vbv_maxrate=50000 / vbv_bufsize=62500 / nal_hrd=none / filler=0 / ip_ratio=1.40 / pb_ratio=1.30 / aq=1:1.00
Language : English
Default : Yes
Forced : No

Audio
ID : 2
Format : AC-3
Format/Info : Audio Coding 3
Commercial name : Dolby Digital
Codec ID : A_AC3
Duration : 2 h 24 min
Bit rate mode : Constant
Bit rate : 192 kb/s
Channel(s) : 2 channels
Channel layout : L R
Sampling rate : 48.0 kHz
Frame rate : 31.250 FPS (1536 SPF)
Bit depth : 16 bits
Compression mode : Lossy
Stream size : 198 MiB (13%)
Title : Dub | iTunes
Language : Russian
Service kind : Complete Main
Default : Yes
Forced : No

Text #1
ID : 3
Format : UTF-8
Codec ID : S_TEXT/UTF8
Codec ID/Info : UTF-8 Plain Text
Duration : 2 h 23 min
Bit rate : 4 b/s
Count of elements : 70
Stream size : 4.40 KiB (0%)
Title : Forced
Language : Russian
Default : Yes
Forced : No

Text #2
ID : 4
Format : UTF-8
Codec ID : S_TEXT/UTF8
Codec ID/Info : UTF-8 Plain Text
Duration : 2 h 23 min
Bit rate : 135 b/s
Count of elements : 2356
Stream size : 142 KiB (0%)
Title : Full (iTunes)
Language : Russian
Default : No
Forced : No

Text #3
ID : 5
Format : UTF-8
Codec ID : S_TEXT/UTF8
Codec ID/Info : UTF-8 Plain Text
Duration : 2 h 15 min
Bit rate : 80 b/s
Count of elements : 2332
Stream size : 80.4 KiB (0%)
Title : Full
Language : English
Default : No
Forced : No

Text #4
ID : 6
Format : UTF-8
Codec ID : S_TEXT/UTF8
Codec ID/Info : UTF-8 Plain Text
Duration : 2 h 16 min
Bit rate : 84 b/s
Count of elements : 2463
Stream size : 84.7 KiB (0%)
Title : SDH
Language : English
Default : No
Forced : No

Menu
00:00:00.000 : en:Chapter 01
00:09:57.847 : en:Chapter 02
00:19:20.325 : en:Chapter 03
00:29:14.585 : en:Chapter 04
00:38:47.574 : en:Chapter 05
00:46:33.957 : en:Chapter 06
00:54:01.821 : en:Chapter 07
01:02:12.603 : en:Chapter 08
01:08:42.618 : en:Chapter 09
01:17:48.205 : en:Chapter 10
01:26:55.919 : en:Chapter 11
01:34:07.350 : en:Chapter 12
01:41:25.704 : en:Chapter 13
01:50:29.289 : en:Chapter 14
02:00:21.005 : en:Chapter 15
02:07:02.823 : en:Chapter 16
02:17:16.602 : en:Chapter 17
Релиз от: piratbit.pw



Скачать Сиротский Бруклин через торрент https://i111.fastpic.ru/big/2020/0118/bc/97f787ec646f4385b6b2cb3a5f839cbc.jpg Скачать фильм Сиротский Бруклин через торрент бесплантно в хорошем качестве Описание: Лайонел Эссрог, одинокий частный детектив с синдромом Туретта, решается начать расследование убийства своего наставника и ... 9 10 2
Торрент: Зарегистрирован [2020-01-21 16:18] · скачан: 151 раз
Статус: √ проверено
Размер: 1.45 GB
Как cкачать? Как скачать Сиротский Бруклин через торрент | qTorrent

% Раздел Тема Автор DL S | L
Фильмы (Blu-ray, BD-Remux, HDDVD) [ 38.47 GB ] Сиротский Бруклин / Motherless Brooklyn [2019 Blu-ray EUR 1080p] DUB [] bober100 Скачать
1 | 0
Фильмы [HD 720p, 1080p] (Хороший звук DUB, MVO) [ 9.51 GB ] Сиротский Бруклин / Motherless Brooklyn [2019 BDRip 720p] + 2x[AVO] killermax2013 Скачать
1 | 0
Фильмы 2019-2020 [DVDrip, WEB-DLRip, HDrip] (DUB, MVO) [ 2.18 GB ] Сиротский Бруклин / Motherless Brooklyn [2019 BDRip] - [] Twi7ter Скачать
5 | 0
Фильмы 2019-2020 [DVDrip, WEB-DLRip, HDrip] (DUB, MVO) [ 1.46 GB ] Сиротский Бруклин / Motherless Brooklyn [2019 BDRip] - [] Twi7ter Скачать
7 | 0
Фильмы [HD 720p, 1080p] (Хороший звук DUB, MVO) [ 5.78 GB ] Сиротский Бруклин / Motherless Brooklyn [2019 BDRip 1080p] killermax2013 Скачать
2 | 0
Фильмы (Blu-ray, BD-Remux, HDDVD) [ 31.69 GB ] Сиротский Бруклин / Motherless Brooklyn [2019 BD Remux 1080p] DUB [] bober100 Скачать
1 | 0
Фильмы 2019-2020 [DVDrip, WEB-DLRip, HDrip] (DUB, MVO) [ 2.17 GB ] Сиротский Бруклин / Motherless Brooklyn [2019 HDRip-AVC] bober100 Скачать
4 | 0

28-11-2019 20:33  

Отключить всю рекламу на сайте

    Дорогой пользователь! Огромная просьба, поблагодарите релизера, оцените раздачу и оставьте свои комментарий, если Вы скачали Сиротский Бруклин через торрент бесплатно! Внесите свою лепту в развитие PiratBit!
    Комментировать посты могут только пользователи прошедшие не сложную регистрацию
    Показать сообщения:    

    Сиротский Бруклин через торрент
    Скачать бесплатно Сиротский Бруклин
    Сиротский Бруклин скачать торрент
    Сиротский Бруклин смотреть онлайн
    Cкачать фильм Сиротский Бруклин бесплатно
    Сиротский Бруклин скачать торрент в хорошем качестве
    Сиротский Бруклин смотреть онлайн бесплатно в хорошем качестве


    Вы не можете начинать темы
    Вы не можете отвечать на сообщения
    Вы не можете редактировать свои сообщения
    Вы не можете удалять свои сообщения
    Вы не можете голосовать в опросах
    Вы не можете прикреплять файлы к сообщениям
    Вы можете скачивать файлы