Ссылка на приватное зеркало всего за 1$. Внимание количество ограничено!!!

iTunes

1+1

iTunes

мы

MV0

1

WEB-DLRip

Джокер

Пифагор

Ведьмак / The Witcher сериал

iTunes

ПШазам

iTunes

Оно 2

iTunes

30
pack

Вам бонус

ВАЖНО

!!Акция!!

Alien_RageХит недели

RePack

Resident Evil 21

ИГРА 18+

pack

RePack

jed

!!Акция!!

Alien_Rage

RePack

fifa19

RePack

Assassins Creed: Odyssey

RePack

NEED FOR SPEED™ PAYBACK

4 сезон

9 сезон

Бесстыжие 9 сезон

Все сериалы

все сериалы на PB.wtf

RePack

FAR CRY 5
  

Проект засекречен / Проект "Синяя книга" / Project Blue Book / Сезон: 2 / Серия: 1-5 из 10 (Норма Бэйли, Томас Картер, Алекс Грейвз) [2020, фантастика, триллер, драма, детектив, WEBRip] MVO [Kerob] piratbit.pw

Проект засекречен через торрент piratbit.pw

Размер: 2.08 GB | Добавлен: 10 д. назад | Торрент скачан:9 раз
Скачать  

21-01-2020 14:51 Проект засекречен Скачать торрент  

Проект засекречен | Проект "Синяя книга" | Project Blue Book
Год выпуска: 2020
Страна: США, Канада
Жанр: фантастика, триллер, драма, детектив
Продолжительность: ~ 00:46:00
Перевод: Любительский (многоголосый) | Kerob
Субтитры: отсутствуют

Режиссер: Норма Бэйли, Томас Картер, Алекс Грейвз

rating

В ролях: Эйдан Гиллен, Майкл Маларки, Лаура Меннелл, Ксения Соло, Нил МакДонаф, Майкл Харни, Николас Холмс, Джилл Моррисон, Иэн Трейси, Роберт Джон Бёрк и другие.

Описание: 1950-е годы. Астроном Дж. Аллен Хинек и капитан ВВС США Майкл Квинн разбираются со свидетельствами появления НЛО. В ходе расследования они натыкаются на правительственный заговор, скрывающий от населения правду.

Качество: WEBRip
Формат: AVI

Видео: 704x352, ~ 1378 Кбит/сек, 23,976 fps
Аудио: Русский / MP3 / 2.0 / 128 kbs
скриншот  скриншот  скриншот  скриншот  

Общее
Полное имя : C:\Project.Blue.Book.S02.400p.Kerob\Project.Blue.Book.S02E01.400p.Kerob.avi
Формат : AVI
Формат/Информация : Audio Video Interleave
Размер файла : 500 Мбайт
Продолжительность : 46 м. 2 с.
Общий поток : 1518 Кбит/сек
Программа кодирования : Lavf54.63.104

Видео
Идентификатор : 0
Формат : xvid
Идентификатор кодека : xvid
Продолжительность : 46 м. 2 с.
Битрейт : 1378 Кбит/сек
Ширина : 704 пикселя
Высота : 352 пикселя
Соотношение сторон : 2,000
Частота кадров : 23,976 (24000/1001) кадра/сек
Тип развёртки : Прогрессивная
Бит/(Пиксели*Кадры) : 0.222
Размер потока : 435 Мбайт (87%)

Аудио
Идентификатор : 1
Формат : MPEG Audio
Версия формата : Version 1
Профиль формата : Layer 3
Настройки формата : Joint stereo / MS Stereo
Идентификатор кодека : 55
Идентификатор кодека/Подсказка : MP3
Продолжительность : 46 м. 2 с.
Вид битрейта : Постоянный
Битрейт : 128 Кбит/сек
Каналы : 2 канала
Частота : 44,1 КГц
Метод сжатия : С потерями
Размер потока : 42,2 Мбайт (8%)
Выравнивание : Соединение по промежуткам

Внимание! Раздача ведётся путём добавления новых серий; при каждом добавлении создаётся новый торрент. Чтобы начать докачку новой серии, пользователям необходимо сделать следующее:
(1) остановить скачивание,
(2) удалить старый торрент у себя из клиента (старые серии удалять не надо),
(3) скачать новый торрент и запустить его у себя в клиенте вместо старого, при этом указать клиенту путь в старую папку куда и должно происходить скачивание новых серий.

Ваш клиент при этом должен произвести хеширование (проверку) старой папки (если не производит сам - помогите ему сделать это), и будет докачивать только те серии которых у вас ещё нет. Старые серии при этом не удаляются, а продолжают раздаваться!

Eсли вы уже удалили старые серии, то предотвратить повторную закачку старых серий можно, отжав галочку в соответсвующих местах при запуске нового торрента. По возможности, желательно не удалять старые серии как можно дольше чтобы релизёр не столько продолжал раздавать старые серии, а смог сконцентрироваться на новых.
piratbit.pw



Скачать Проект засекречен через торрент https://d.radikal.ru/d43/2001/9d/41444de5be4a.jpg Скачать фильм Проект засекречен через торрент бесплантно в хорошем качестве Описание: 1950-е годы. Астроном Дж. Аллен Хинек и капитан ВВС США Майкл Квинн разбираются со свидетельствами появления НЛО. В ходе ... 10 10 3
Торрент: Зарегистрирован [2020-02-15 13:44] · скачан: 9 раз
Статус: T временная
Размер: 2.08 GB
Как cкачать? Как скачать Проект засекречен через торрент | qTorrent

28-11-2019 20:33  

Отключить всю рекламу на сайте

    Дорогой пользователь! Огромная просьба, поблагодарите релизера, оцените раздачу и оставьте свои комментарий, если Вы скачали Проект засекречен через торрент бесплатно! Внесите свою лепту в развитие PiratBit!
    Комментировать посты могут только пользователи прошедшие не сложную регистрацию
    Показать сообщения:    

    Проект засекречен через торрент
    Скачать бесплатно Проект засекречен
    Проект засекречен скачать торрент
    Проект засекречен смотреть онлайн
    Cкачать фильм Проект засекречен бесплатно
    Проект засекречен скачать торрент в хорошем качестве
    Проект засекречен смотреть онлайн бесплатно в хорошем качестве


    Вы не можете начинать темы
    Вы не можете отвечать на сообщения
    Вы не можете редактировать свои сообщения
    Вы не можете удалять свои сообщения
    Вы не можете голосовать в опросах
    Вы не можете прикреплять файлы к сообщениям
    Вы можете скачивать файлы