1 сезон

1 сезон

iTunes

1

КиноПоиск HD

Кинопоиск HD

iTunes

13

1 сезон

RePack

30

Ultimate

ВАЖНО

ИГРА 18+

pack

RePack

MK11
pack

Легкие деньги

RePack

jed

RePack

fifa19

RePack

RDR2

RePack

NEED FOR SPEED™ PAYBACK

4 сезон

9 сезон

Бесстыжие 9 сезон

Все сериалы

все сериалы на PB.wtf

RePack

FAR CRY 5
  
Magnet ссылка

Запах мандарина / L'odeur de la mandarine (Жиль Легран) [2015, мелодрама, драма, BDRip-AVC by msltel] AVO piratbit.pw

Запах мандарина через торрент piratbit.pw

Размер: 2.36 GB | Добавлен: 1 год 3 мес. назад | Торрент скачан:13 раз
Скачать  

20-01-2020 12:38 Запах мандарина Скачать торрент  

Название: Запах мандарина
Оригинальное название: L'odeur de la mandarine
Год выпуска: 2015
Страна: Франция
Жанр: мелодрама, драма
Продолжительность: 01:50:57
Перевод: авторский
Режиссер: Жиль Легран
В ролях: Оливье Гурме, Джорджия Скаллет, Дмитрий Сторож, Элен Венсан, Фред Улисс, Роман Бутей, Мишель Робен, Юрбен Канселье

О фильме: 1918 год. 22-летняя медсестра Анжела, недавно потерявшая мужа на фронте, одна воспитывает дочь. 48-летний кавалерист Шарль потерял в бою ногу и тихо доживает жизнь в своём поместье. Но волею судеб эти два одиноких сердца встречаются — Анжела устраивается в дом Шарля сиделкой. Постепенно между ними возникает чувство привязанности, которое возвращает Шарлю вкус к жизни. Но Анжела оказывается не такой простой и наивной девушкой, как может показаться на первый взгляд...



Качество: BDRip-AVC
Формат: MKV
Видео: MPEG-4 AVC, 2149 Кбит/с, 1024x426, 23.976 кадр/с
Аудио 1: русский, AC3, 448 kbps, 6 ch, 48 kHz [авторский, Антон Алексеев]
Аудио 2: французский, AC3, 448 kbps, 6 ch, 48 kHz [оригинал]
Субтитры: французские
Главы/чаптеры
Общее
Уникальный идентификатор : 225607255686443932888767294150080310059 (0xA9BA607F1FB03A82B65746090225AB2B)
Полное имя : D:\Video\Запах мандарина..2015.BDRip-AVC by msltel.mkv
Формат : Matroska
Версия формата : Version 4
Размер файла : 2,36 Гбайт
Продолжительность : 1 ч. 50 м.
Общий поток : 3047 Кбит/сек
Название фильма : Rip by msltel
Дата кодирования : UTC 2020-01-20 11:45:00
Программа кодирования : mkvmerge v8.2.0 ('World of Adventure') 64bit
Библиотека кодирования : libebml v1.3.1 + libmatroska v1.4.2

Видео
Идентификатор : 1
Формат : AVC
Формат/Информация : Advanced Video Codec
Профиль формата : High@L4.1
Настройки формата : CABAC / 9 Ref Frames
Параметр CABAC формата : Да
Параметр RefFrames формата : 9 кадров
Идентификатор кодека : V_MPEG4/ISO/AVC
Продолжительность : 1 ч. 50 м.
Битрейт : 2149 Кбит/сек
Ширина : 1024 пикселя
Высота : 426 пикселей
Соотношение сторон : 2,40:1
Режим частоты кадров : Постоянный
Частота кадров : 23,976 (24000/1001) кадра/сек
Цветовое пространство : YUV
Субдискретизация насыщенности : 4:2:0
Битовая глубина : 8 бит
Тип развёртки : Прогрессивная
Бит/(Пиксели*Кадры) : 0.206
Размер потока : 1,67 Гбайт (71%)
Библиотека кодирования : x264 core 157 r2935 545de2f
Настройки программы : cabac=1 / ref=9 / deblock=1:-2:-2 / analyse=0x3:0x113 / me=umh / subme=11 / psy=1 / psy_rd=1.00:0.15 / mixed_ref=1 / me_range=32 / chroma_me=1 / trellis=2 / 8x8dct=1 / cqm=0 / deadzone=21,11 / fast_pskip=0 / chroma_qp_offset=-3 / threads=6 / lookahead_threads=1 / sliced_threads=0 / nr=0 / decimate=1 / interlaced=0 / bluray_compat=0 / constrained_intra=0 / bframes=11 / b_pyramid=2 / b_adapt=2 / b_bias=0 / direct=1 / weightb=1 / open_gop=0 / weightp=2 / keyint=230 / keyint_min=23 / scenecut=40 / intra_refresh=0 / rc_lookahead=40 / rc=crf / mbtree=0 / crf=17.0 / qcomp=0.60 / qpmin=0 / qpmax=69 / qpstep=4 / vbv_maxrate=50000 / vbv_bufsize=62500 / crf_max=0.0 / nal_hrd=none / filler=0 / ip_ratio=1.40 / pb_ratio=1.30 / aq=1:1.00
Язык : French
Default : Да
Forced : Нет

Аудио #1
Идентификатор : 2
Формат : AC-3
Формат/Информация : Audio Coding 3
Коммерческое название : Dolby Digital
Идентификатор кодека : A_AC3
Продолжительность : 1 ч. 50 м.
Вид битрейта : Постоянный
Битрейт : 448 Кбит/сек
Каналы : 6 каналов
ChannelLayout : L R C LFE Ls Rs
Частота : 48,0 КГц
Частота кадров : 31,250 кадров/сек (1536 SPF)
Метод сжатия : С потерями
Размер потока : 356 Мбайт (15%)
Заголовок : Антон Алекссев
Язык : Russian
ServiceKind/String : Complete Main
Default : Да
Forced : Нет

Аудио #2
Идентификатор : 3
Формат : AC-3
Формат/Информация : Audio Coding 3
Коммерческое название : Dolby Digital
Идентификатор кодека : A_AC3
Продолжительность : 1 ч. 50 м.
Вид битрейта : Постоянный
Битрейт : 448 Кбит/сек
Каналы : 6 каналов
ChannelLayout : L R C LFE Ls Rs
Частота : 48,0 КГц
Частота кадров : 31,250 кадров/сек (1536 SPF)
Метод сжатия : С потерями
Размер потока : 356 Мбайт (15%)
Заголовок : original
Язык : French
ServiceKind/String : Complete Main
Default : Нет
Forced : Нет

Текст
Идентификатор : 4
Формат : UTF-8
Идентификатор кодека : S_TEXT/UTF8
Идентификатор кодека/Информация : UTF-8 Plain Text
Продолжительность : 1 ч. 50 м.
Битрейт : 38 бит/сек
ElementCount : 1216
Размер потока : 30,9 Кбайт (0%)
Заголовок : французские
Язык : French
Default : Нет
Forced : Нет

Меню
00:00:00.000 : :Chapter 1
00:12:39.133 : :Chapter 2
00:22:32.726 : :Chapter 3
00:32:45.171 : :Chapter 4
00:45:31.353 : :Chapter 5
00:55:19.733 : :Chapter 6
01:07:57.865 : :Chapter 7
01:16:34.214 : :Chapter 8
01:22:36.910 : :Chapter 9
01:30:15.952 : :Chapter 10
01:39:42.184 : :Chapter 11
01:47:36.700 : :Chapter 12
01:50:57.609 : :Chapter 13
piratbit.pw



Скачать Запах мандарина через торрент https://a.radikal.ru/a13/2001/a1/13b6ec357d5b.jpg Скачать фильм Запах мандарина через торрент бесплантно в хорошем качестве О фильме: 1918 год. 22-летняя медсестра Анжела, недавно потерявшая мужа на фронте, одна воспитывает дочь. 48-летний кавалерист Шарль ... 5 10 1
Торрент: Зарегистрирован [2020-01-20 12:38] · скачан: 13 раз
Статус: √ проверено
Размер: 2.36 GB
Как cкачать? Как скачать Запах мандарина через торрент | UTorrent

28-11-2019 20:33  

Отключить всю рекламу на сайте

    Дорогой пользователь! Огромная просьба, поблагодарите релизера, оцените раздачу и оставьте свои комментарий, если Вы скачали Запах мандарина через торрент бесплатно! Внесите свою лепту в развитие PiratBit!
    Комментировать посты могут только пользователи прошедшие не сложную регистрацию
    Показать сообщения:    

    Запах мандарина через торрент
    Скачать бесплатно Запах мандарина
    Запах мандарина скачать торрент
    Запах мандарина смотреть онлайн
    Cкачать фильм Запах мандарина бесплатно
    Запах мандарина скачать торрент в хорошем качестве
    Запах мандарина смотреть онлайн бесплатно в хорошем качестве


    Вы не можете начинать темы
    Вы не можете отвечать на сообщения
    Вы не можете редактировать свои сообщения
    Вы не можете удалять свои сообщения
    Вы не можете голосовать в опросах
    Вы не можете прикреплять файлы к сообщениям
    Вы можете скачивать файлы