Ссылка на приватное зеркало нашего сайта всего за 1$. Внимание количество ограничено!!!

2 сезон

iTunes

1 сезон

1

2 сезон

2 сезон

iTunes

1 сезон

RePack

30

Ultimate

ВАЖНО

ИГРА 18+

pack

RePack

MK11
pack

Забери бонус

RePack

jed

!!Акция!!

Alien_Rage

RePack

fifa19

RePack

Assassins Creed: Odyssey

RePack

NEED FOR SPEED™ PAYBACK

4 сезон

9 сезон

Бесстыжие 9 сезон

Все сериалы

все сериалы на PB.wtf

RePack

FAR CRY 5
  

Терминатор: Темные судьбы / Terminator: Dark Fate (Тим Миллер) [2019, фантастика, боевик, приключения, BDRip-AVC] DUB [iTunes] piratbit.pw

Терминатор: Темные судьбы через торрент piratbit.pw

Раздают: 4 [ 0 KB/s ]
Размер: 1.46 GB | Добавлен: 9 мес. назад | Торрент скачан:596 раз
Скачать  

17-01-2020 00:02 Терминатор: Темные судьбы Скачать торрент  

Терминатор: Темные судьбы | Terminator: Dark Fate
Год выпуска: 2019
Страна: США, Китай
Студия: Paramount Pictures, Twentieth Century Fox, Skydance Media
Жанр: фантастика, боевик, приключения
Продолжительность: 02:08:05
Перевод: Дублированный | iTunes
Субтитры: Русские (Forced, full)

Режиссер: Тим Миллер

rating

В ролях: Арнольд Шварценеггер, Маккензи Дэвис, Эдвард Ферлонг, Линда Хэмилтон, Том Хоппер, Кассандра Старр, Наталия Рейес, Гэбриел Луна, Бретт Азар, Диего Бонета

Описание: Мексика. Милая девушка Даниэла Рамос, а для друзей просто Дани, вместе с братом приходит с утра работать на завод, но там выясняется, что их вскоре заменят автоматикой. И это не единственная угроза, которую представляют для девушки машины: тут же на неё нападает присланная из будущего и практически неубиваемая модель терминатора REV-9. Но на защиту Дани встает Грэйс — тоже прибывшая из будущего женщина, модифицировавшая свои боевые характеристики до терминаторского уровня. Вскоре к ним на помощь придёт и Сара Коннор, которая теперь превратилась в настоящую охотницу на роботов-убийц.

Качество: BDRip-AVC
Формат: MKV

Видео: 720x300 (2.40:1), 23,976 fps, MPEG-4 AVC ~ 1437 Kbps avg, 0.277 bit/pixel
Аудио: 48 kHz, AC3 Dolby Digital, 2/0 (L,R) ch, ~192 kbps
скриншот  скриншот  скриншот  скриншот  скриншот  

Общее
Уникальный идентификатор : 23813137123972061779366691407912594377 (0x11EA3E4E8638742B7DBD8BC9F43D6BC9)
Полное имя : Terminator.Dark.Fate.2019.iT.BDRip.x264.1.46.Gb.mkv
Формат : Matroska
Версия формата : Version 4
Размер файла : 1,46 Гбайт
Продолжительность : 2 ч. 8 м.
Общий поток : 1631 Кбит/сек
Название фильма : Терминатор: Темные судьбы / Terminator: Dark Fate (2019)
Дата кодирования : UTC 2020-01-30 21:15:05
Программа кодирования : mkvmerge v41.0.0 ('Smarra') 64-bit
Библиотека кодирования : libebml v1.3.9 + libmatroska v1.5.2
Обложка : Yes
Attachments : cover.jpg / cover_1.png

Видео
Идентификатор : 1
Формат : AVC
Формат/Информация : Advanced Video Codec
Профиль формата : High@L4.1
Настройки формата : CABAC / 10 Ref Frames
Параметр CABAC формата : Да
Параметр RefFrames формата : 10 кадров
Идентификатор кодека : V_MPEG4/ISO/AVC
Продолжительность : 2 ч. 8 м.
Битрейт : 1437 Кбит/сек
Ширина : 720 пикселей
Высота : 300 пикселей
Соотношение сторон : 2,40:1
Режим частоты кадров : Постоянный
Частота кадров : 23,976 (24000/1001) кадра/сек
Цветовое пространство : YUV
Субдискретизация насыщенности : 4:2:0
Битовая глубина : 8 бит
Тип развёртки : Прогрессивная
Бит/(Пиксели*Кадры) : 0.277
Размер потока : 1,29 Гбайт (88%)
Заголовок : #stillet
Библиотека кодирования : x264 core 152 r2851bm ba24899
Настройки программы : cabac=1 / ref=10 / deblock=1:-2:-2 / analyse=0x3:0x113 / me=umh / subme=11 / psy=1 / psy_rd=1.00:0.15 / mixed_ref=1 / me_range=32 / chroma_me=1 / trellis=2 / 8x8dct=1 / cqm=0 / deadzone=21,11 / fast_pskip=0 / chroma_qp_offset=-3 / threads=16 / lookahead_threads=3 / sliced_threads=0 / nr=0 / decimate=0 / interlaced=0 / bluray_compat=0 / constrained_intra=0 / bframes=11 / b_pyramid=2 / b_adapt=2 / b_bias=0 / direct=3 / weightb=1 / open_gop=0 / weightp=2 / keyint=240 / keyint_min=23 / scenecut=40 / intra_refresh=0 / rc=2pass / mbtree=0 / bitrate=1437 / ratetol=1.0 / qcomp=0.60 / qpmin=0 / qpmax=69 / qpstep=4 / cplxblur=20.0 / qblur=0.5 / ip_ratio=1.40 / pb_ratio=1.30 / aq=1:1.00
Язык : English
Default : Да
Forced : Нет

Аудио
Идентификатор : 2
Формат : AC-3
Формат/Информация : Audio Coding 3
Коммерческое название : Dolby Digital
Идентификатор кодека : A_AC3
Продолжительность : 2 ч. 8 м.
Вид битрейта : Постоянный
Битрейт : 192 Кбит/сек
Каналы : 2 канала
ChannelLayout : L R
Частота : 48,0 КГц
Частота кадров : 31,250 кадров/сек (1536 SPF)
Метод сжатия : С потерями
Размер потока : 176 Мбайт (12%)
Заголовок : DUB | iTunes
Язык : Russian
Default : Да
Forced : Да

Текст #1
Идентификатор : 3
Формат : UTF-8
Идентификатор кодека : S_TEXT/UTF8
Идентификатор кодека/Информация : UTF-8 Plain Text
Продолжительность : 2 ч. 4 м.
Битрейт : 4 бит/сек
ElementCount : 143
Размер потока : 4,36 Кбайт (0%)
Заголовок : Forsed
Язык : Russian
Default : Да
Forced : Да

Текст #2
Идентификатор : 4
Формат : UTF-8
Идентификатор кодека : S_TEXT/UTF8
Идентификатор кодека/Информация : UTF-8 Plain Text
Продолжительность : 2 ч. 7 м.
Битрейт : 49 бит/сек
ElementCount : 1250
Размер потока : 46,2 Кбайт (0%)
Заголовок : Full
Язык : Russian
Default : Нет
Forced : Нет

Меню
00:00:00.000 : en:Chapter 01
00:04:19.843 : en:Chapter 02
00:07:48.927 : en:Chapter 03
00:11:47.916 : en:Chapter 04
00:16:56.349 : en:Chapter 05
00:22:10.663 : en:Chapter 06
00:29:00.614 : en:Chapter 07
00:33:25.754 : en:Chapter 08
00:41:35.493 : en:Chapter 09
00:47:02.695 : en:Chapter 10
00:53:08.936 : en:Chapter 11
00:57:56.807 : en:Chapter 12
01:05:02.690 : en:Chapter 13
01:13:07.967 : en:Chapter 14
01:20:45.591 : en:Chapter 15
01:27:29.744 : en:Chapter 16
01:32:48.688 : en:Chapter 17
01:41:45.850 : en:Chapter 18
01:49:35.319 : en:Chapter 19
01:57:58.613 : en:Chapter 20
piratbit.pw



Скачать Терминатор: Темные судьбы через торрент https://d.radikal.ru/d41/2001/9f/c8c5cc845584.jpg Скачать фильм Терминатор: Темные судьбы через торрент бесплантно в хорошем качестве Описание: Мексика. Милая девушка Даниэла Рамос, а для друзей просто Дани, вместе с братом приходит с утра работать на завод, но там ... 9.8 10 38
Info! Золотая раздача, скачанное не засчитывается.
Торрент: Зарегистрирован [2020-01-31 03:29] · скачан: 596 раз
Статус: √ проверено
Размер: 1.46 GB
Как cкачать? Как скачать Терминатор: Темные судьбы через торрент | qTorrent

% Раздел Тема Автор DL S | L
Ultra HD (UHD: 2K, 4K, 8K) — видео сверхвысокой чёткости [ 48.52 GB ] Терминатор: Темные судьбы / Terminator: Dark Fate [2019 UHD BDRemux 2160p ] bober100 Скачать
3 | 0
Фильмы с авторской озвучкой [ 2.18 GB ] Терминатор: Темные судьбы / Terminator: Dark Fate [2019 HDRip] AVO [Дмитрий Есарев] Twi7ter Скачать
74 | 0
Фильмы 2019-2020 [DVDrip, WEB-DLRip, HDrip] (DUB, MVO) [ 2.13 GB ] Терминатор: Темные судьбы / Terminator: Dark Fate [2019 BDRip] - Twi7ter Скачать
64 | 0
Ultra HD (UHD: 2K, 4K, 8K) — видео сверхвысокой чёткости [ 62.62 GB ] Терминатор: Темные судьбы / Terminator: Dark Fate [2019 UHD BDRemux 2160p ] DUB +AVO [Д. Есарев] bober100 Скачать
2 | 0
Фильмы с авторской озвучкой [ 1.46 GB ] Терминатор: Темные судьбы / Terminator: Dark Fate [2019 HDRip] AVO [Дмитрий Есарев] Twi7ter Скачать
116 | 2
Фильмы [HD 720p, 1080p] (Хороший звук DUB, MVO) [ 11.9 GB ] Терминатор: Темные судьбы / Terminator: Dark Fate [2019 BDRip 1080p] DUB +AVO [Д. Есарев] bober100 Скачать
21 | 0
Фильмы 2019-2020 [DVDrip, WEB-DLRip, HDrip] (DUB, MVO) [ 813 MB ] Терминатор: Темные судьбы / Terminator: Dark Fate [2019 BDRip] bober100 Скачать
3 | 0

28-11-2019 20:33  

Отключить всю рекламу на сайте

    Дорогой пользователь! Огромная просьба, поблагодарите релизера, оцените раздачу и оставьте свои комментарий, если Вы скачали Терминатор: Темные судьбы через торрент бесплатно! Внесите свою лепту в развитие PiratBit!
    Комментировать посты могут только пользователи прошедшие не сложную регистрацию
    Показать сообщения:    

    Терминатор: Темные судьбы через торрент
    Скачать бесплатно Терминатор: Темные судьбы
    Терминатор: Темные судьбы скачать торрент
    Терминатор: Темные судьбы смотреть онлайн
    Cкачать фильм Терминатор: Темные судьбы бесплатно
    Терминатор: Темные судьбы скачать торрент в хорошем качестве
    Терминатор: Темные судьбы смотреть онлайн бесплатно в хорошем качестве


    Вы не можете начинать темы
    Вы не можете отвечать на сообщения
    Вы не можете редактировать свои сообщения
    Вы не можете удалять свои сообщения
    Вы не можете голосовать в опросах
    Вы не можете прикреплять файлы к сообщениям
    Вы можете скачивать файлы