Ссылка на приватное зеркало нашего сайта всего за 1$. Внимание количество ограничено!!!

2 сезон

iTunes

1 сезон

1

2 сезон

2 сезон

iTunes

1 сезон

RePack

30

Ultimate

ВАЖНО

ИГРА 18+

pack

RePack

MK11
pack

Забери бонус

RePack

jed

!!Акция!!

Alien_Rage

RePack

fifa19

RePack

Assassins Creed: Odyssey

RePack

NEED FOR SPEED™ PAYBACK

4 сезон

9 сезон

Бесстыжие 9 сезон

Все сериалы

все сериалы на PB.wtf

RePack

FAR CRY 5
  

Обратный отсчет / Countdown (Джастин Дек) [2019, Ужасы, триллер, BDRip-AVC] DUB [iTunes] - ExKinoRay piratbit.pw

Обратный отсчет через торрент piratbit.pw

Раздают: 10 [ 0 KB/s ]
Размер: 1.5 GB | Добавлен: 10 мес. назад | Торрент скачан:431 раз
Скачать  

16-01-2020 03:50 Обратный отсчет Скачать торрент  

Название: Обратный отсчет
Оригинальное название: Countdown
Год выпуска: 2019
Жанр: Ужасы, триллер
Режиссер: Джастин Дек
В ролях: Элизабет Лэил, Чарли МакДермотт, Питер Фачинелли, Джордан Кэллоуэй, Талита Бейтман, Диллон Лэйн, Тичина Арнольд, Том Сегура, Лана МакКиссак, Энн Уинтерс

Описание: В наш век гаджетов и высоких технологий для всего есть мобильное приложение. Хочешь узнать, сколько тебе осталось жить? Пожалуйста! Девушка видит на экране телефона неумолимый вердикт - ее жизнь оборвется через 3 дня. Сможет ли она избежать смерти, если обратный отсчет уже начался?

rating

Страна: США
Студия: Boies/Schiller Film Group, Wrigley Pictures
Продолжительность: 01:30:40
Перевод: Дублированный | iTunes

Формат: MKV
Качество: BDRip-AVC
Видео: MPEG-4 AVC, 1024x428 (2.40:1), 23.976 fps, 1542 Kbps, 0.147 bit/pixel
Аудио #01: 48 kHz, AC3, 5.1, 384 Kbps | iTunes | RUS |
Аудио #02: 48 kHz, AC3, 5.1, 448 Kbps | Оригинал | ENG |
x264 [info]: frame I:1223 Avg QP:11.48 size: 70245
x264 [info]: frame P:26680 Avg QP:14.95 size: 18926
x264 [info]: frame B:102537 Avg QP:16.89 size: 4450
_________________________________________________
General
Unique ID : 215609834850911071904129513586855026554 (0xA234F197EBB1C13EA6E0C66C60949F7A)
Complete name : F:\Countdown.2019.BDRip.AVC.ExKinoRay.mkv
Format : Matroska
Format version : Version 2
File size : 1.50 GiB
Duration : 1 h 30 min
Overall bit rate : 2 374 kb/s
Movie name : Countdown 2019 from ExKinoRay
Encoded date : UTC 2020-01-16 02:37:19
Writing application : mkvmerge v5.6.0 ('Kenya Kane') built on May 27 2012 16:44:04
Writing library : libebml v1.2.3 + libmatroska v1.3.0

Video
ID : 1
Format : AVC
Format/Info : Advanced Video Codec
Format profile : High@L4.1
Format settings, CABAC : Yes
Format settings, ReFrames : 12 frames
Codec ID : V_MPEG4/ISO/AVC
Duration : 1 h 30 min
Bit rate : 1 542 kb/s
Width : 1 024 pixels
Height : 428 pixels
Display aspect ratio : 2.40:1
Frame rate mode : Constant
Frame rate : 23.976 (23976/1000) FPS
Color space : YUV
Chroma subsampling : 4:2:0
Bit depth : 8 bits
Scan type : Progressive
Bits/(Pixel*Frame) : 0.147
Stream size : 969 MiB (63%)
Title : Enigma
Writing library : x264 core 152 r2851 ba24899
Encoding settings : cabac=1 / ref=12 / deblock=1:-2:-2 / analyse=0x3:0x113 / me=umh / subme=10 / psy=1 / psy_rd=1.02:0.05 / mixed_ref=1 / me_range=32 / chroma_me=1 / trellis=2 / 8x8dct=1 / cqm=0 / deadzone=21,11 / fast_pskip=0 / chroma_qp_offset=-3 / threads=12 / lookahead_threads=3 / sliced_threads=0 / nr=0 / decimate=0 / interlaced=0 / bluray_compat=0 / constrained_intra=0 / bframes=12 / b_pyramid=2 / b_adapt=2 / b_bias=0 / direct=3 / weightb=1 / open_gop=0 / weightp=2 / keyint=240 / keyint_min=23 / scenecut=40 / intra_refresh=0 / rc=2pass / mbtree=0 / bitrate=1542 / ratetol=1.0 / qcomp=0.60 / qpmin=0 / qpmax=51 / qpstep=4 / cplxblur=20.0 / qblur=0.5 / ip_ratio=1.40 / pb_ratio=1.30 / aq=1:1.00
Language : English
Default : Yes
Forced : No
Color range : Limited
Color primaries : BT.709
Transfer characteristics : BT.709
Matrix coefficients : BT.709

Audio #1
ID : 2
Format : AC-3
Format/Info : Audio Coding 3
Mode extension : CM (complete main)
Format settings, Endianness : Big
Codec ID : A_AC3
Duration : 1 h 30 min
Bit rate mode : Constant
Bit rate : 384 kb/s
Channel(s) : 6 channels
Channel positions : Front: L C R, Side: L R, LFE
Sampling rate : 48.0 kHz
Frame rate : 31.250 FPS (1536 spf)
Compression mode : Lossy
Stream size : 249 MiB (16%)
Title : iTunes
Language : Russian
Default : Yes
Forced : No

Audio #2
ID : 3
Format : AC-3
Format/Info : Audio Coding 3
Mode extension : CM (complete main)
Format settings, Endianness : Big
Codec ID : A_AC3
Duration : 1 h 30 min
Bit rate mode : Constant
Bit rate : 448 kb/s
Channel(s) : 6 channels
Channel positions : Front: L C R, Side: L R, LFE
Sampling rate : 48.0 kHz
Frame rate : 31.250 FPS (1536 spf)
Compression mode : Lossy
Stream size : 291 MiB (19%)
Language : English
Default : No
Forced : No

Text
ID : 4
Format : UTF-8
Codec ID : S_TEXT/UTF8
Codec ID/Info : UTF-8 Plain Text
Language : English
Default : No
Forced : No

Menu
00:00:00.000 : en:Глава 01
00:03:14.694 : en:Глава 02
00:08:07.028 : en:Глава 03
00:14:14.937 : en:Глава 04
00:18:02.999 : en:Глава 05
00:24:23.462 : en:Глава 06
00:31:47.989 : en:Глава 07
00:35:37.552 : en:Глава 08
00:39:21.943 : en:Глава 09
00:44:15.736 : en:Глава 10
00:47:26.177 : en:Глава 11
00:50:52.925 : en:Глава 12
00:55:49.304 : en:Глава 13
00:59:32.027 : en:Глава 14
01:07:01.059 : en:Глава 15
01:09:26.496 : en:Глава 16
01:15:02.456 : en:Глава 17
01:20:53.891 : en:Глава 18
01:22:54.261 : en:Глава 19
01:24:05.165 : en:Глава 20


Релиз от:

Автор релиза: piratbit.pw



Скачать Обратный отсчет через торрент https://d.radikal.ru/d00/2001/ff/307b4d5c622c.png Скачать фильм Обратный отсчет через торрент бесплантно в хорошем качестве Описание: В наш век гаджетов и высоких технологий для всего есть мобильное приложение. Хочешь узнать, сколько тебе осталось жить? ... 9.1 10 8
Info! Золотая раздача, скачанное не засчитывается.
Торрент: Зарегистрирован [2020-01-16 03:50] · скачан: 431 раз
Статус: √ проверено
Размер: 1.5 GB
Как cкачать? Как скачать Обратный отсчет через торрент | qTorrent

28-11-2019 20:33  

Отключить всю рекламу на сайте

19-01-2020 09:55 Обратный отсчет Скачать торрент  

Хороший фильм. Похож на "Пункт назначения".piratbit.pw



    Дорогой пользователь! Огромная просьба, поблагодарите релизера, оцените раздачу и оставьте свои комментарий, если Вы скачали Обратный отсчет через торрент бесплатно! Внесите свою лепту в развитие PiratBit!
    Комментировать посты могут только пользователи прошедшие не сложную регистрацию
    Показать сообщения:    

    Обратный отсчет через торрент
    Скачать бесплатно Обратный отсчет
    Обратный отсчет скачать торрент
    Обратный отсчет смотреть онлайн
    Cкачать фильм Обратный отсчет бесплатно
    Обратный отсчет скачать торрент в хорошем качестве
    Обратный отсчет смотреть онлайн бесплатно в хорошем качестве


    Вы не можете начинать темы
    Вы не можете отвечать на сообщения
    Вы не можете редактировать свои сообщения
    Вы не можете удалять свои сообщения
    Вы не можете голосовать в опросах
    Вы не можете прикреплять файлы к сообщениям
    Вы можете скачивать файлы