Ссылка на приватное зеркало всего за 1$. Внимание количество ограничено!!!

iTunes

iTunes

iTunes

1

iTunes

iTunes

iTunes

WEBRip

iTunes

30
pack

$ от Little Big

ВАЖНО

!!Акция!!

Alien_RageХит недели

RePack

Resident Evil 21

ИГРА 18+

pack

RePack

jed

!!Акция!!

Alien_Rage

RePack

fifa19

RePack

Assassins Creed: Odyssey

RePack

NEED FOR SPEED™ PAYBACK

4 сезон

9 сезон

Бесстыжие 9 сезон

Все сериалы

все сериалы на PB.wtf

RePack

FAR CRY 5
  

Дублинские убийства / Dublin Murders / Сезон: 1 / Серии: 1-8 из 8 (Джон Хэйес, Ребекка Гатуард, Сол Дибб) [2019, Драма, криминал, WEB-DLRip] MVO [Novamedia / Amedia] piratbit.pw

Дублинские убийства через торрент piratbit.pw

Раздают: 1 [ 0 KB/s ]
Размер: 7.55 GB | Добавлен: 6 мес. назад | Торрент скачан:60 раз
Скачать  

15-01-2020 09:57 Дублинские убийства Скачать торрент  

Дублинские убийства | Dublin Murders
Год выпуска: 2019
Страна: Великобритания
Студия: Euston Films, Element Pictures
Жанр: Драма, криминал
Продолжительность: ~ 01:00:00
Перевод: Профессиональный (многоголосый) | Novamedia по заказу Amedia
Субтитры: отсутствуют

Режиссер: Джон Хэйес, Ребекка Гатуард, Сол Дибб

rating


В ролях: Том Вон-Лолор, Киллиан Скотт, Мо Данфорд, Сара Грин, Конлет Хилл, Йен Кенни, Леа Макнамара, Юджин О'Харе, Эми Маккен, Джонни Холден

Описание: В густом лесу на окраине Дублина находят труп ребёнка. Дело ведут полицейские Роб Райли и Кэсси Мэддокс. В ходе расследования они подозревают, что убийство связано с пропажей троих детей в дублинских лесах больше двадцати лет назад. Жуткие факты, открывающиеся следователям, заставляют их лицом к лицу столкнуться со своими собственными демонами. А взаимоотношения напарников переживают серьёзную проверку.

Качество: WEB-DLRip
Формат: AVI

Видео: 704x352, XviD ~1800 kbps avg, 0.31 bit/pixel
Аудио Rus: 48 kHz, AC3, 2/0 (L,R) ch, ~192 kbps avg
Аудио Eng: 48 kHz, AC3, 2/0 (L,R) ch, ~192 kbps avg
скриншот  скриншот  скриншот  скриншот  

Общее
Полное имя : D:\Dublin Murders\Dublin.Murders.s01e01.avi
Формат : AVI
Формат/Информация : Audio Video Interleave
Размер файла : 934 Мбайт
Продолжительность : 57 м. 57 с.
Общий поток : 2253 Кбит/сек
Программа кодирования : VirtualDubMod 1.5.10.2 (build 2540/release)
Библиотека кодирования : VirtualDubMod build 2540/release

Видео
Идентификатор : 0
Формат : MPEG-4 Visual
Профиль формата : Advanced Simple@L5
Параметр BVOP формата : 1
Параметр QPel формата : Нет
Параметр GMC формата : Без точки перехода
Параметр матрицы формата : Выборочная
Идентификатор кодека : XVID
Идентификатор кодека/Подсказка : XviD
Продолжительность : 57 м. 57 с.
Битрейт : 1769 Кбит/сек
Ширина : 704 пикселя
Высота : 352 пикселя
Соотношение сторон : 2,000
Частота кадров : 23,976 (23976/1000) кадра/сек
Цветовое пространство : YUV
Субдискретизация насыщенности : 4:2:0
Битовая глубина : 8 бит
Тип развёртки : Прогрессивная
Метод сжатия : С потерями
Бит/(Пиксели*Кадры) : 0.298
Размер потока : 733 Мбайт (79%)
Библиотека кодирования : XviD 73

Аудио #1
Идентификатор : 1
Формат : AC-3
Формат/Информация : Audio Coding 3
Расширение режима : CM (complete main)
Параметр Endianness формата : Big
Идентификатор кодека : 2000
Продолжительность : 57 м. 57 с.
Вид битрейта : Постоянный
Битрейт : 192 Кбит/сек
Каналы : 2 канала
Расположение каналов : Front: L R
Частота : 48,0 КГц
Частота кадров : 31,250 кадров/сек (1536 spf)
Метод сжатия : С потерями
Размер потока : 79,6 Мбайт (9%)
Выравнивание : Разделение по промежуткам

Аудио #2
Идентификатор : 2
Формат : AC-3
Формат/Информация : Audio Coding 3
Расширение режима : CM (complete main)
Параметр Endianness формата : Big
Идентификатор кодека : 2000
Продолжительность : 57 м. 57 с.
Вид битрейта : Постоянный
Битрейт : 192 Кбит/сек
Каналы : 2 канала
Расположение каналов : Front: L R
Частота : 48,0 КГц
Частота кадров : 31,250 кадров/сек (1536 spf)
Метод сжатия : С потерями
Размер потока : 79,6 Мбайт (9%)
Выравнивание : Соединение по промежуткам

Когда раздача ведётся путём добавления новых серий, при каждом добавлении создётся новый торрент. Чтобы начать докачку новой серии, пользователям необходимо сделать следующее:
(1) остановить скачивание,
(2) удалить старый торрент у себя из клиента (старые серии удалять не надо),
(3) скачать новый торрент и запустить его у себя в клиенте вместо старого, при этом указать клиенту путь в старую папку, куда и должно происходить скачивание новых серий.
Ваш клиент при этом должен произвести хеширование (проверку) старой папки (если не производит сам - помогите ему сделать это), и будет докачивать только те серии, которых у вас ещё нет. Старые серии при этом не удаляются, а продолжают раздаваться!
Eсли вы уже удалили старые серии, то предотвратить повторную закачку старых серий можно, отжав галочку в соответсвующих местах при запуске нового торрента. По возможности, желательно не удалять старые серии как можно дольше, чтобы релизер не столько продолжал раздавать старые серии, а смог сконцентрироваться на новых.
piratbit.pw



Скачать Дублинские убийства через торрент https://d.radikal.ru/d36/1910/d3/c877be414fc4.jpg Скачать фильм Дублинские убийства через торрент бесплантно в хорошем качестве Описание: В густом лесу на окраине Дублина находят труп ребёнка. Дело ведут полицейские Роб Райли и Кэсси Мэддокс. В ходе расследования они ... 10 10 2
Торрент: Зарегистрирован [2020-01-16 17:43] · скачан: 60 раз
Статус: √ проверено
Размер: 7.55 GB
Как cкачать? Как скачать Дублинские убийства через торрент | qTorrent

% Раздел Тема Автор DL S | L
Зарубежные сериалы [ 28.39 GB ] Дублинские убийства / Dublin Murders / Сезон: 1 / Серии: 1-8 из 8 [2019 WEB-DL 1080p] MVO [Novamedia] bober100 Скачать
1 | 0
Зарубежные сериалы [ 5.39 GB ] Дублинские убийства / Dublin Murders / Сезон: 1 / Серии: 1-8 из 8 [2019 WEB-DLRip] [MVO] killermax2013 Скачать
1 | 0
Зарубежные сериалы [ 29.03 GB ] Дублинские убийства / Dublin Murders / Сезон: 1 / Серии: 1-8 из 8 [2019 WEB-DL 1080p] [MVO] killermax2013 Скачать
1 | 0
Зарубежные сериалы [ 12.73 GB ] Дублинские убийства / Dublin Murders / Сезон: 1 / Серии: 1-8 из 8 [2019 WEB-DL 720p] MVO [TVShows] bober100 Скачать
2 | 0

28-11-2019 20:33  

Отключить всю рекламу на сайте

    Дорогой пользователь! Огромная просьба, поблагодарите релизера, оцените раздачу и оставьте свои комментарий, если Вы скачали Дублинские убийства через торрент бесплатно! Внесите свою лепту в развитие PiratBit!
    Комментировать посты могут только пользователи прошедшие не сложную регистрацию
    Показать сообщения:    

    Дублинские убийства через торрент
    Скачать бесплатно Дублинские убийства
    Дублинские убийства скачать торрент
    Дублинские убийства смотреть онлайн
    Cкачать фильм Дублинские убийства бесплатно
    Дублинские убийства скачать торрент в хорошем качестве
    Дублинские убийства смотреть онлайн бесплатно в хорошем качестве


    Вы не можете начинать темы
    Вы не можете отвечать на сообщения
    Вы не можете редактировать свои сообщения
    Вы не можете удалять свои сообщения
    Вы не можете голосовать в опросах
    Вы не можете прикреплять файлы к сообщениям
    Вы можете скачивать файлы