Ссылка на приватное зеркало всего за 1$. Внимание количество ограничено!!!

iTunes

1+1

iTunes

мы

iTunes

1

iTunes

Джокер

Пифагор

Ведьмак / The Witcher сериал

iTunes

ПШазам

iTunes

Оно 2

iTunes

30
pack

Новость дня

ВАЖНО

!!Акция!!

Alien_RageХит недели

RePack

Resident Evil 21

ИГРА 18+

pack

RePack

jed

!!Акция!!

Alien_Rage

RePack

fifa19

RePack

Assassins Creed: Odyssey

RePack

NEED FOR SPEED™ PAYBACK

4 сезон

9 сезон

Бесстыжие 9 сезон

Все сериалы

все сериалы на PB.wtf

RePack

FAR CRY 5
  

Чужак / The Outsider / Сезон: 1 / Серии: 1-10 из 10 (Эндрю Бернштейн, Джейсон Бейтман, Шарлотта Брандстром) [2020, Триллер, детектив, криминал, WEBRip 1080p] [MVO] (TVShows) piratbit.pw

Чужак через торрент piratbit.pw

Раздают: 2 [ 603 KB/s ]
Размер: 30.99 GB | Добавлен: 5 д. назад | Торрент скачан:3 раза
Скачать  

15-01-2020 07:07 Чужак Скачать торрент  

Чужак | The Outsider
Год выпуска: 2020
Страна: США
Жанр: Триллер, детектив, криминал
Продолжительность: ~ 00:55:00
Перевод: Профессиональный (многоголосый закадровый) <TVShows>
Субтитры: английские

Режиссер: Эндрю Бернштейн, Джейсон Бейтман, Шарлотта Брандстром

В ролях: Юл Васкес, Джейсон Бейтман, Джереми Бобб, Синтиа Эриво, Джон Геттье, Марк Менчака, Бен Мендельсон, Джулианна Николсон, Дерек Сесил, Билл Кэмп

Описание: Мужчину обвиняют в убийстве мальчика. Отпечатки пальцев указывают на него, но если верить записям с камер, то он в момент убийства находился в 90 км от места преступления. Детектив, расследующий дело, начинает подозревать, что в случившемся замешано нечто сверхъестественное.

ratingскриншот  

Качество: WEBRip 1080p
Формат: MKV
Видео: 1920x1080 at 23.976 fps, MPEG-4 AVC, ~5 400 kbps avg
Аудио: 48 kHz, AC3, 6 ch, ~384 kbps avg - MVO
Аудио: 48 kHz, E-AC3, 6 ch, ~640 kbps avg - ENG
скриншот  скриншот  скриншот  
General
Unique ID : 21668603181677511778998676680157193080 (0x104D389EBB7C7D15E3D1BBBFE2846378)
Complete name : E:\The.Outsider.S01.1080p.TVShows\The.Outsider.S01E01.1080p.TVShows.mkv
Format : Matroska
Format version : Version 4 / Version 2
File size : 3.20 GiB
Duration : 1h 0mn
Overall bit rate : 7 540 Kbps
Encoded date : UTC 2020-01-15 06:22:11
Writing application : mkvmerge v33.1.0 ('Primrose') 64-bit
Writing library : libebml v1.3.7 + libmatroska v1.5.0

Video
ID : 1
Format : AVC
Format/Info : Advanced Video Codec
Format profile : High@L4
Format settings, CABAC : Yes
Format settings, ReFrames : 4 frames
Codec ID : V_MPEG4/ISO/AVC
Duration : 1h 0mn
Bit rate mode : Constant
Bit rate : 6 366 Kbps
Nominal bit rate : 10 000 Kbps
Width : 1 920 pixels
Height : 1 080 pixels
Display aspect ratio : 16:9
Frame rate mode : Constant
Frame rate : 23.976 fps
Color space : YUV
Chroma subsampling : 4:2:0
Bit depth : 8 bits
Scan type : Progressive
Bits/(Pixel*Frame) : 0.128
Stream size : 2.70 GiB (84%)
Default : Yes
Forced : No
Color range : Limited
Color primaries : BT.709
Transfer characteristics : BT.709
Matrix coefficients : BT.709

Audio #1
ID : 2
Format : AC-3
Format/Info : Audio Coding 3
Mode extension : CM (complete main)
Format settings, Endianness : Big
Codec ID : A_AC3
Duration : 1h 0mn
Bit rate mode : Constant
Bit rate : 384 Kbps
Channel(s) : 6 channels
Channel positions : Front: L C R, Side: L R, LFE
Sampling rate : 48.0 KHz
Compression mode : Lossy
Stream size : 167 MiB (5%)
Title : TVShows
Language : Russian
Default : Yes
Forced : Yes

Audio #2
ID : 3
Format : E-AC-3
Format/Info : Audio Coding 3
Format settings, Endianness : Big
Codec ID : A_EAC3
Duration : 1h 0mn
Bit rate mode : Constant
Bit rate : 640 Kbps
Channel(s) : 6 channels
Channel positions : Front: L C R, Side: L R, LFE
Sampling rate : 48.0 KHz
Compression mode : Lossy
Delay relative to video : 8ms
Stream size : 278 MiB (8%)
Title : Original
Language : English
Default : No
Forced : No

Text
ID : 4
Format : UTF-8
Codec ID : S_TEXT/UTF8
Codec ID/Info : UTF-8 Plain Text
Title : English
Language : English
Default : No
Forced : No

Внимание! Раздача ведётся путём добавления новых серий; при каждом добавлении создаётся новый торрент. Чтобы начать докачку новой серии, пользователям необходимо сделать следующее:
(1) остановить скачивание,
(2) удалить старый торрент у себя из клиента (старые серии удалять не надо),
(3) скачать новый торрент и запустить его у себя в клиенте вместо старого, при этом указать клиенту путь в старую папку куда и должно происходить скачивание новых серий.

Ваш клиент при этом должен произвести хеширование (проверку) старой папки (если не производит сам - помогите ему сделать это), и будет докачивать только те серии которых у вас ещё нет. Старые серии при этом не удаляются, а продолжают раздаваться!

Eсли вы уже удалили старые серии, то предотвратить повторную закачку старых серий можно, отжав галочку в соответсвующих местах при запуске нового торрента. По возможности, желательно не удалять старые серии как можно дольше чтобы релизёр не столько продолжал раздавать старые серии, а смог сконцентрироваться на новых.
piratbit.pw



Скачать Чужак через торрент https://a.radikal.ru/a07/2001/b9/245f49fe67d9.jpg Скачать фильм Чужак через торрент бесплантно в хорошем качестве Описание: Мужчину обвиняют в убийстве мальчика. Отпечатки пальцев указывают на него, но если верить записям с камер, то он в момент ... 7.5 10 8
Торрент: Зарегистрирован [2020-03-25 22:46] · скачан: 3 раз
Статус: не проверено
Размер: 30.99 GB
Как cкачать? Как скачать Чужак через торрент | qTorrent

% Раздел Тема Автор DL S | L
Зарубежные сериалы [ 30.99 GB ] Чужак / The Outsider / Сезон: 1 / Серии: 1-10 из 10 [2020 WEB-DL 1080p] MVO [NewStudio] bober100 Скачать
2 | 1
Зарубежные сериалы [ 30.99 GB ] Чужак / The Outsider / Сезон: 1 / Серии: 1-10 из 10 [2020 WEB-DL 1080p] MVO [AlexFilm] bober100 Скачать
1 | 1
Зарубежные сериалы [ 3.37 GB ] Чужак / The Outsider / Сезон: 1 / Серии: 1- из 10 [2020 WEB-DL 1080p] 2xMVO [AlexFilm NewStudio] bober100 Скачать
1 | 2
Зарубежные сериалы [ 12.87 GB ] Чужак / The Outsider / Сезон: 1 / Серии: 1-10 из 10 [2020 WEB-DL 720p] MVO [AlexFilm] bober100 Скачать
11 | 4
Зарубежные сериалы [ 8.59 GB ] Чужак / The Outsider / Сезон: 1 / Серии: 1-10 из 10 [2020 WEBRip] MVO [TVShows] bober100 Скачать
5 | 0
Зарубежные сериалы [ 30.22 GB ] Чужак / The Outsider / Сезон: 1 / Серии: 1-10 из 10 [2020 WEB-DL 1080p] MVO [Кравец-Рекордз / Amedia] bober100 Скачать
3 | 5
Зарубежные сериалы [ 7.99 GB ] Чужак / The Outsider / Сезон: 1 / Серии: 1-10 из 10 [2020 WEB-DLRip] MVO [NewStudio] bober100 Скачать
12 | 3

28-11-2019 20:33  

Отключить всю рекламу на сайте

    Дорогой пользователь! Огромная просьба, поблагодарите релизера, оцените раздачу и оставьте свои комментарий, если Вы скачали Чужак через торрент бесплатно! Внесите свою лепту в развитие PiratBit!
    Комментировать посты могут только пользователи прошедшие не сложную регистрацию
    Показать сообщения:    

    Чужак через торрент
    Скачать бесплатно Чужак
    Чужак скачать торрент
    Чужак смотреть онлайн
    Cкачать фильм Чужак бесплатно
    Чужак скачать торрент в хорошем качестве
    Чужак смотреть онлайн бесплатно в хорошем качестве


    Вы не можете начинать темы
    Вы не можете отвечать на сообщения
    Вы не можете редактировать свои сообщения
    Вы не можете удалять свои сообщения
    Вы не можете голосовать в опросах
    Вы не можете прикреплять файлы к сообщениям
    Вы можете скачивать файлы