Ссылка на приватное зеркало всего за 1$. Внимание количество ограничено!!!

iTunes

1+1

iTunes

мы

MV0

1

WEB-DLRip

Джокер

Пифагор

Ведьмак / The Witcher сериал

iTunes

ПШазам

iTunes

Оно 2

iTunes

30
pack

Вам бонус

ВАЖНО

!!Акция!!

Alien_RageХит недели

RePack

Resident Evil 21

ИГРА 18+

pack

RePack

jed

!!Акция!!

Alien_Rage

RePack

fifa19

RePack

Assassins Creed: Odyssey

RePack

NEED FOR SPEED™ PAYBACK

4 сезон

9 сезон

Бесстыжие 9 сезон

Все сериалы

все сериалы на PB.wtf

RePack

FAR CRY 5
  

Дублинские убийства / Dublin Murders / Сезон: 1 / Серии: 1-8 из 8 (Джон Хэйес, Ребекка Гатуард, Сол Дибб) [2019, Драма, криминал, WEB-DL 1080p] MVO [Novamedia] piratbit.pw

Дублинские убийства через торрент piratbit.pw

Размер: 28.39 GB | Добавлен: 1 мес. 1 д. назад | Торрент скачан:17 раз
Скачать  

15-01-2020 05:41 Дублинские убийства Скачать торрент  

Дублинские убийства | Dublin Murders
Год выпуска: 2019
Страна: Великобритания
Студия: Euston Films, Element Pictures
Жанр: Драма, криминал
Продолжительность: ~ 01:00:00
Перевод: Профессиональный (многоголосый) | Novamedia
Субтитры: Русские (Forced, Full), английские

Режиссер: Джон Хэйес, Ребекка Гатуард, Сол Дибб

rating


В ролях: Том Вон-Лолор, Киллиан Скотт, Мо Данфорд, Сара Грин, Конлет Хилл, Йен Кенни, Леа Макнамара, Юджин О'Харе, Эми Маккен, Джонни Холден

Описание: В густом лесу на окраине Дублина находят труп ребёнка. Дело ведут полицейские Роб Райли и Кэсси Мэддокс. В ходе расследования они подозревают, что убийство связано с пропажей троих детей в дублинских лесах больше двадцати лет назад. Жуткие факты, открывающиеся следователям, заставляют их лицом к лицу столкнуться со своими собственными демонами. А взаимоотношения напарников переживают серьёзную проверку.

Качество: WEB-DL 1080p
Формат: MKV

Видео: 1920x960 at 23.976 fps, MPEG-4 AVC, ~9500 kbps avg
Аудио#1 Russian: 48 kHz, AC3, 2/0 (L,R) ch, ~192.00 kbps avg
Аудио#2 English: 48 kHz, E-AC3, 3/2 (L,C,R,l,r) + LFE ch, ~640.00 kbps avg
скриншот  скриншот  скриншот  скриншот  скриншот  

General
Complete name : Dublin.Murders.S01E01.1080p.AMZN.WEB-DL.-Kyle.mkv
Format : Matroska
Format version : Version 4
File size : 4.13 GiB
Duration : 57 min 57 s
Overall bit rate : 10.2 Mb/s
Encoded date : UTC 2020-01-14 22:29:22
Writing application : mkvmerge v42.0.0 ('Overtime') 64-bit
Writing library : libebml v1.3.10 + libmatroska v1.5.2

Video
ID : 1
Format : AVC
Format/Info : Advanced Video Codec
Format profile : High@L4
Format settings : CABAC / 4 Ref Frames
Format settings, CABAC : Yes
Format settings, Reference : 4 frames
Codec ID : V_MPEG4/ISO/AVC
Duration : 57 min 57 s
Bit rate mode : Constant
Bit rate : 9 356 kb/s
Nominal bit rate : 10 000 kb/s
Width : 1 920 pixels
Height : 960 pixels
Display aspect ratio : 2.000
Frame rate mode : Constant
Frame rate : 23.976 (24000/1001) FPS
Color space : YUV
Chroma subsampling : 4:2:0
Bit depth : 8 bits
Scan type : Progressive
Bits/(Pixel*Frame) : 0.212
Stream size : 3.79 GiB (92%)
Title : English
Language : English
Default : Yes
Forced : No
Color range : Limited
Color primaries : BT.709
Transfer characteristics : BT.709
Matrix coefficients : BT.709

Audio #1
ID : 2
Format : AC-3
Format/Info : Audio Coding 3
Commercial name : Dolby Digital
Codec ID : A_AC3
Duration : 57 min 57 s
Bit rate mode : Constant
Bit rate : 192 kb/s
Channel(s) : 2 channels
Channel layout : L R
Sampling rate : 48.0 kHz
Frame rate : 31.250 FPS (1536 SPF)
Compression mode : Lossy
Stream size : 79.6 MiB (2%)
Title : Russian
Language : Russian
Service kind : Complete Main
Default : No
Forced : No

Audio #2
ID : 3
Format : E-AC-3
Format/Info : Enhanced AC-3
Commercial name : Dolby Digital Plus
Codec ID : A_EAC3
Duration : 57 min 57 s
Bit rate mode : Constant
Bit rate : 640 kb/s
Channel(s) : 6 channels
Channel layout : L R C LFE Ls Rs
Sampling rate : 48.0 kHz
Frame rate : 31.250 FPS (1536 SPF)
Compression mode : Lossy
Stream size : 265 MiB (6%)
Title : English
Language : English
Service kind : Complete Main
Default : No
Forced : No

Text
ID : 4
Format : UTF-8
Codec ID : S_TEXT/UTF8
Codec ID/Info : UTF-8 Plain Text
Duration : 50 min 47 s
Bit rate : 1 b/s
Count of elements : 16
Stream size : 601 Bytes (0%)
Title : Forced
Language : Russian
Default : Yes
Forced : No

Когда раздача ведётся путём добавления новых серий, при каждом добавлении создётся новый торрент. Чтобы начать докачку новой серии, пользователям необходимо сделать следующее:
(1) остановить скачивание,
(2) удалить старый торрент у себя из клиента (старые серии удалять не надо),
(3) скачать новый торрент и запустить его у себя в клиенте вместо старого, при этом указать клиенту путь в старую папку, куда и должно происходить скачивание новых серий.
Ваш клиент при этом должен произвести хеширование (проверку) старой папки (если не производит сам - помогите ему сделать это), и будет докачивать только те серии, которых у вас ещё нет. Старые серии при этом не удаляются, а продолжают раздаваться!
Eсли вы уже удалили старые серии, то предотвратить повторную закачку старых серий можно, отжав галочку в соответсвующих местах при запуске нового торрента. По возможности, желательно не удалять старые серии как можно дольше, чтобы релизер не столько продолжал раздавать старые серии, а смог сконцентрироваться на новых.
piratbit.pw



Скачать Дублинские убийства через торрент https://d.radikal.ru/d36/1910/d3/c877be414fc4.jpg Скачать фильм Дублинские убийства через торрент бесплантно в хорошем качестве Описание: В густом лесу на окраине Дублина находят труп ребёнка. Дело ведут полицейские Роб Райли и Кэсси Мэддокс. В ходе расследования они ... 9.4 10 5
Торрент: Зарегистрирован [2020-01-18 00:47] · скачан: 17 раз
Статус: √ проверено
Размер: 28.39 GB
Как cкачать? Как скачать Дублинские убийства через торрент | qTorrent

% Раздел Тема Автор DL S | L
Зарубежные сериалы [ 7.55 GB ] Дублинские убийства / Dublin Murders / Сезон: 1 / Серии: 1-8 из 8 [2019 WEB-DLRip] MVO [Novamedia / Amedia] bober100 Скачать
1 | 0
Зарубежные сериалы [ 5.39 GB ] Дублинские убийства / Dublin Murders / Сезон: 1 / Серии: 1-8 из 8 [2019 WEB-DLRip] [MVO] killermax2013 Скачать
3 | 0
Зарубежные сериалы [ 29.03 GB ] Дублинские убийства / Dublin Murders / Сезон: 1 / Серии: 1-8 из 8 [2019 WEB-DL 1080p] [MVO] killermax2013 Скачать
1 | 0
Зарубежные сериалы [ 12.73 GB ] Дублинские убийства / Dublin Murders / Сезон: 1 / Серии: 1-8 из 8 [2019 WEB-DL 720p] MVO [TVShows] bober100 Скачать
1 | 0

28-11-2019 20:33  

Отключить всю рекламу на сайте

    Дорогой пользователь! Огромная просьба, поблагодарите релизера, оцените раздачу и оставьте свои комментарий, если Вы скачали Дублинские убийства через торрент бесплатно! Внесите свою лепту в развитие PiratBit!
    Комментировать посты могут только пользователи прошедшие не сложную регистрацию
    Показать сообщения:    

    Дублинские убийства через торрент
    Скачать бесплатно Дублинские убийства
    Дублинские убийства скачать торрент
    Дублинские убийства смотреть онлайн
    Cкачать фильм Дублинские убийства бесплатно
    Дублинские убийства скачать торрент в хорошем качестве
    Дублинские убийства смотреть онлайн бесплатно в хорошем качестве


    Вы не можете начинать темы
    Вы не можете отвечать на сообщения
    Вы не можете редактировать свои сообщения
    Вы не можете удалять свои сообщения
    Вы не можете голосовать в опросах
    Вы не можете прикреплять файлы к сообщениям
    Вы можете скачивать файлы