Ссылка на приватное зеркало нашего сайта всего за 1$. Внимание количество ограничено!!!

2 сезон

iTunes

1 сезон

1

iTunes

iTunes

iTunes

1 сезон

RePack

30

ИГРА 18+

pack

ВАЖНО

!!Акция!!

Alien_RageХит недели

RePack

MK11
pack

Забери бонус

RePack

jed

!!Акция!!

Alien_Rage

RePack

fifa19

RePack

Assassins Creed: Odyssey

RePack

NEED FOR SPEED™ PAYBACK

4 сезон

9 сезон

Бесстыжие 9 сезон

Все сериалы

все сериалы на PB.wtf

RePack

FAR CRY 5
  

Странная дружба / Особая дружба / Les Amities particulieres / This Special Friendship (Жан Деланнуа) [1964., драма, DVDRip-AVC] VO, Fre, Sub (rus/eng) piratbit.pw

Странная дружба через торрент piratbit.pw

Раздают: 1 [ 0 KB/s ]
Размер: 2.18 GB | Добавлен: 9 мес. назад | Торрент скачан:1 раз
Скачать  

14-01-2020 17:07 Странная дружба Скачать торрент  

Странная дружба | Особая дружба | Les Amities particulieres | This Special Friendship

«What Was Their Guilt?»

Год выпуска: 1964
Страна: Франция | Lux Compagnie Cinematographique de France, Progefi
Жанр: драма
Продолжительность: 01:36:32
Перевод: Любительский (одноголосый, закадровый)
Субтитры: Русские (Lucien Carr), Английские

Режиссер: Жан Деланнуа

В ролях: Франсис Лакомбраде, Дидье Одпен, Франсуа Леччия, Доминик Морен, Луи Сенье, Мишель Буке, Люсьен Нат, Жерар Шамбр, Анри Куте, Доминик Дайамант

Описание: Экранизация книги французского писателя Роджера Пейрефитта.
1930-е годы. В католический колледж, отличающийся суровыми нравами и подозрительностью наставников — искоренителей греха, приезжает на учёбу старшеклассник Жорж де Сарр.
В первые дни пребывания в школе юноша обращает внимание на очаровательного двенадцатилетнего Александра Мотье.
Дружелюбный и непосредственный, оставшийся один после отчисления брата и вечно отбывающий наказания за мелкие нарушения дисциплины, Александр отзывается на внимание Жоржа, к которому первое время робко обращается на «Вы».
Между мальчиками возникает не то чтобы любовь, но очень близкая дружба: они перемигиваются во время службы в церкви, пишут друг другу стихи, тайком бегают в заброшенную оранжерею на свидания, во время которых даже не решаются сесть рядом, а потом на крови клянутся навечно сохранить свою дружбу, вовсе не помышляя о чём-то непристойном…
Во время тайного свидания их застает один из отцов - наставников и заставляет порвать отношения. В результате трагический финал.
Инфо:
* Фильм снят по мотивам романа Роже Пейрефитта «Странная дружба» (1944 год).
* При выходе на экраны в 1964 году фильм был запрещен для показа детям до 18 лет...
* Для советского и российского проката фильм не приобретался, на русский язык не дублировался.


rating «Рекламы нет»

Файл
Формат: MKV
Кодек: x264
Качество: DVDRip-AVC (DVD5)
Видео: 702x576@998x576 (16:9), 25.000 fps, 2852 kbps, 0.282 bit/pixel
Аудио #1: Русский, AC3, 2 chnls, 192 kbps | VO
Аудио #2: Французский, AC3, 2 chnls, 192 kbps | Original

Скачать: Семпл
x264 info: frame I:784 Avg QP:15.55 size: 65398
x264 info: frame P:45290 Avg QP:18.38 size: 26859
x264 info: frame B:98750 Avg QP:20.15 size: 8073
x264 info: consecutive B-frames: 11.7% 2.2% 11.9% 22.4% 25.6% 24.6% 1.0% 0.6% 0.0% 0.0%
Format : Matroska
Format version : Version 2
File size : 2.18 GiB
Duration : 1 h 36 min
Overall bit rate : 3 238 kb/s
Movie name : Les Amities particulieres / This Special Friendship (1964) - Rip by -{am}-
Encoded date : UTC 2020-01-10 11:43:31
Writing application : mkvmerge v7.8.0 ('River Man') 32bit built on Apr 3 2015 12:11:22
Writing library : libebml v1.3.1 + libmatroska v1.4.2
Attachments : poster.jpg

Video
ID : 1
Format : AVC
Format/Info : Advanced Video Codec
Format profile : High@L4
Format settings : CABAC / 14 Ref Frames
Format settings, CABAC : Yes
Format settings, Reference : 14 frames
Codec ID : V_MPEG4/ISO/AVC
Duration : 1 h 36 min
Bit rate : 2 852 kb/s
Width : 702 pixels
Height : 576 pixels
Display aspect ratio : 1.733
Frame rate mode : Constant
Frame rate : 25.000 FPS
Color space : YUV
Chroma subsampling : 4:2:0
Bit depth : 8 bits
Scan type : Progressive
Bits/(Pixel*Frame) : 0.282
Stream size : 1.88 GiB (86%)
Title : This.Special.Friendship.1964.{am}.998.Rus.Fre.Sub
Writing library : x264 core 157 r2958 57baac4
Encoding settings : cabac=1 / ref=14 / deblock=1:0:0 / analyse=0x3:0x113 / me=umh / subme=11 / psy=1 / psy_rd=1.00:0.00 / mixed_ref=1 / me_range=32 / chroma_me=1 / trellis=2 / 8x8dct=1 / cqm=1 / deadzone=21,11 / fast_pskip=0 / chroma_qp_offset=-2 / threads=5 / lookahead_threads=1 / sliced_threads=0 / nr=0 / decimate=0 / interlaced=0 / bluray_compat=0 / constrained_intra=0 / bframes=9 / b_pyramid=2 / b_adapt=2 / b_bias=0 / direct=3 / weightb=1 / open_gop=0 / weightp=2 / keyint=250 / keyint_min=25 / scenecut=40 / intra_refresh=0 / rc=2pass / mbtree=0 / bitrate=2852 / ratetol=1.0 / qcomp=0.60 / qpmin=3 / qpmax=69 / qpstep=4 / cplxblur=20.0 / qblur=0.5 / ip_ratio=1.40 / pb_ratio=1.30 / aq=3:1.00
Language : English
Default : Yes
Forced : No

Audio #1
ID : 2
Format : AC-3
Format/Info : Audio Coding 3
Commercial name : Dolby Digital
Codec ID : A_AC3
Duration : 1 h 36 min
Bit rate mode : Constant
Bit rate : 192 kb/s
Channel(s) : 2 channels
Channel layout : L R
Sampling rate : 48.0 kHz
Frame rate : 31.250 FPS (1536 SPF)
Compression mode : Lossy
Stream size : 133 MiB (6%)
Title : L1, Одноголосый закадровый
Language : Russian
Service kind : Complete Main
Default : Yes
Forced : No

Audio #2
ID : 3
Format : AC-3
Format/Info : Audio Coding 3
Commercial name : Dolby Digital
Codec ID : A_AC3
Duration : 1 h 36 min
Bit rate mode : Constant
Bit rate : 192 kb/s
Channel(s) : 2 channels
Channel layout : L R
Sampling rate : 48.0 kHz
Frame rate : 31.250 FPS (1536 SPF)
Compression mode : Lossy
Stream size : 133 MiB (6%)
Title : Original
Language : French
Service kind : Complete Main
Default : No
Forced : No

Text #1
ID : 4
Format : UTF-8
Codec ID : S_TEXT/UTF8
Codec ID/Info : UTF-8 Plain Text
Language : Russian
Default : Yes
Forced : No

Text #2
ID : 5
Format : UTF-8
Codec ID : S_TEXT/UTF8
Codec ID/Info : UTF-8 Plain Text
Language : English
Default : No
Forced : No

Menu
00:00:00.000 : :Глава 1
00:06:08.280 : :Глава 2
00:12:16.880 : :Глава 3
00:18:36.000 : :Глава 4
00:27:28.360 : :Глава 5
00:35:29.600 : :Глава 6
00:46:35.400 : :Глава 7
00:56:18.680 : :Глава 8
01:07:34.680 : :Глава 9
01:21:23.920 : :Глава 10
01:33:41.600 : :Глава 11
piratbit.pw



Скачать Странная дружба через торрент https://img16.lostpic.net/2020/01/12/4d64c84340d4a8afe861819fdda7ed96.th.jpg Скачать фильм Странная дружба через торрент бесплантно в хорошем качестве Описание: Экранизация книги французского писателя Роджера Пейрефитта.1930-е годы. В католический колледж, отличающийся суровыми нравами и ... 5 10 1
Info! Золотая раздача, скачанное не засчитывается.
Торрент: Зарегистрирован [2020-01-14 17:07] · скачан: 1 раз
Статус: √ проверено
Размер: 2.18 GB
Как cкачать? Как скачать Странная дружба через торрент | qTorrent

28-11-2019 20:33  

Отключить всю рекламу на сайте

    Дорогой пользователь! Огромная просьба, поблагодарите релизера, оцените раздачу и оставьте свои комментарий, если Вы скачали Странная дружба через торрент бесплатно! Внесите свою лепту в развитие PiratBit!
    Комментировать посты могут только пользователи прошедшие не сложную регистрацию
    Показать сообщения:    

    Странная дружба через торрент
    Скачать бесплатно Странная дружба
    Странная дружба скачать торрент
    Странная дружба смотреть онлайн
    Cкачать фильм Странная дружба бесплатно
    Странная дружба скачать торрент в хорошем качестве
    Странная дружба смотреть онлайн бесплатно в хорошем качестве


    Вы не можете начинать темы
    Вы не можете отвечать на сообщения
    Вы не можете редактировать свои сообщения
    Вы не можете удалять свои сообщения
    Вы не можете голосовать в опросах
    Вы не можете прикреплять файлы к сообщениям
    Вы можете скачивать файлы