Ссылка на приватное зеркало нашего сайта всего за 1$. Внимание количество ограничено!!!

2 сезон

iTunes

iTunes

1

iTunes

iTunes

iTunes

WEBRip

iTunes

30
pack

Вам бонус

ВАЖНО

!!Акция!!

Alien_RageХит недели

RePack

Horizon Zero Dawn

ИГРА 18+

pack

RePack

jed

!!Акция!!

Alien_Rage

RePack

fifa19

RePack

Assassins Creed: Odyssey

RePack

NEED FOR SPEED™ PAYBACK

4 сезон

9 сезон

Бесстыжие 9 сезон

Все сериалы

все сериалы на PB.wtf

RePack

FAR CRY 5
  

Единичка (Кирилл Белевич) [2015, военный, драма, BDRip 720p] [GER Transfer] [Лицензия] - KORSAR piratbit.pw

Единичка через торрент piratbit.pw

Размер: 4.12 GB | Добавлен: 8 мес. назад | Торрент скачан:99 раз
Скачать  

14-01-2020 16:38 Единичка Скачать торрент  

Единичка
Год выпуска: 2015
Страна: Россия
Жанр: Военный, драма
Продолжительность: 01:44:58
Перевод: Не требуется
Субтитры: Русские
Режиссёр: Кирилл Белевич
В ролях: Андрей Мерзликин, Илья Коробко, Анна Прус, Арина Борисова, Александр Вершинин, Михаил Евланов, Микаэл Джанибекян, Сергей Габриэлян, Добрыня Белевич-Оболенский, Якуб Здруйковский
Описание: Август 1944-го. Советские войска продолжают наступление в Восточной Польше. Подразделение старшего лейтенанта Егорова получает задание — удержать мост, через который планируется переправа частей Советской Армии. Прибыв на позицию, бойцы обнаруживают разрушенный монастырь, а в нем — группу глухих сирот с воспитательницей Евой. Утратив веру, она нашла смысл жизни в спасении немощных и беззащитных детей. Лейтенант Егоров оказывается перед сложным выбором — выполняя приказ командования, он будет вынужден поставить под угрозу жизнь маленьких поляков. Артиллеристы изо всех сил стараются не допустить смерти детей.

rating

Качество: BDRip 720p
Формат: MKV
Видео: MPEG-4 AVC, 1280x536, 5000 kbps, 25.000 fps
Аудио: Russian: 48 kHz, AC3, 5.1 ch, 16 bits, 640 kbps

Релиз от:


  • x264 [info]: frame I:1066 Avg QP:16.11 size:101148
  • x264 [info]: frame P:44879 Avg QP:18.86 size: 39858
  • x264 [info]: frame B:111529 Avg QP:20.31 size: 18170
  • x264 [info]: consecutive B-frames: 7.0% 6.3% 17.0% 20.6% 10.9% 29.1% 5.8% 1.0% 1.1% 0.5% 0.7%

    ===========================================================================

    Формат : Matroska
    Версия формата : Version 2
    Размер файла : 4,12 Гбайт
    Продолжительность : 1 ч. 44 м.
    Общий поток : 5625 Кбит/сек
    Название фильма : = Единичка (2015) BDRip 720p - KORSAR =
    Дата кодирования : UTC 2019-12-21 08:59:43
    Программа кодирования : mkvmerge v5.8.0 ('No Sleep / Pillow') built on Sep 2 2012 15:37:04
    Библиотека кодирования : libebml v1.2.3 + libmatroska v1.3.0
    Attachment : Yes

    Видео
    Идентификатор : 1
    Формат : AVC
    Формат/Информация : Advanced Video Codec
    Профиль формата : High@L4.1
    Параметр CABAC формата : Да
    Параметр ReFrames формата : 12 кадров
    Идентификатор кодека : V_MPEG4/ISO/AVC
    Продолжительность : 1 ч. 44 м.
    Битрейт : 5000 Кбит/сек
    Ширина : 1280 пикселей
    Высота : 536 пикселей
    Соотношение сторон : 2,40:1
    Режим частоты кадров : Постоянный
    Частота кадров : 25,000 кадров/сек
    Цветовое пространство : YUV
    Субдискретизация насыщенности : 4:2:0
    Битовая глубина : 8 бит
    Тип развёртки : Прогрессивная
    Бит/(Пиксели*Кадры) : 0.292
    Размер потока : 3,57 Гбайт (87%)
    Заголовок : Единичка (2015) BDRip 720p - KORSAR
    Библиотека кодирования : x264 core 158 r2984 3759fcb
    Настройки программы : cabac=1 / ref=12 / deblock=1:-3:-3 / analyse=0x3:0x113 / me=umh / subme=11 / psy=1 / psy_rd=1.00:0.04 / mixed_ref=1 / me_range=48 / chroma_me=1 / trellis=2 / 8x8dct=1 / cqm=0 / deadzone=21,11 / fast_pskip=0 / chroma_qp_offset=-3 / threads=12 / lookahead_threads=3 / sliced_threads=0 / nr=0 / decimate=0 / interlaced=0 / bluray_compat=0 / constrained_intra=0 / bframes=10 / b_pyramid=2 / b_adapt=2 / b_bias=0 / direct=3 / weightb=1 / open_gop=0 / weightp=2 / keyint=250 / keyint_min=25 / scenecut=40 / intra_refresh=0 / rc_lookahead=60 / rc=2pass / mbtree=0 / bitrate=5000 / ratetol=1.0 / qcomp=0.66 / qpmin=0 / qpmax=39 / qpstep=4 / cplxblur=20.0 / qblur=0.5 / vbv_maxrate=50000 / vbv_bufsize=62500 / nal_hrd=none / filler=0 / ip_ratio=1.25 / pb_ratio=1.30 / aq=3:0.80
    Язык : Russian
    Default : Да
    Forced : Нет
    Основные цвета : BT.709
    Характеристики трансфера : BT.709
    Коэффициенты матрицы : BT.709

    Аудио
    Идентификатор : 2
    Формат : AC-3
    Формат/Информация : Audio Coding 3
    Расширение режима : CM (complete main)
    Параметр Endianness формата : Big
    Идентификатор кодека : A_AC3
    Продолжительность : 1 ч. 44 м.
    Вид битрейта : Постоянный
    Битрейт : 640 Кбит/сек
    Каналы : 6 каналов
    Расположение каналов : Front: L C R, Side: L R, LFE
    Частота : 48,0 КГц
    Битовая глубина : 16 бит
    Метод сжатия : С потерями
    Размер потока : 481 Мбайт (11%)
    Язык : Russian
    Default : Да
    Forced : Нет

    Текст
    Идентификатор : 3
    Формат : UTF-8
    Идентификатор кодека : S_TEXT/UTF8
    Идентификатор кодека/Информация : UTF-8 Plain Text
    Язык : Russian
    Default : Нет
    Forced : Нет

    Меню
    00:00:00.000 : en:00:00:00.000
    00:07:37.120 : en:00:07:37.120
    00:16:38.080 : en:00:16:38.080
    00:20:33.280 : en:00:20:33.280
    00:28:34.400 : en:00:28:34.400
    00:37:18.920 : en:00:37:18.920
    00:42:20.600 : en:00:42:20.600
    00:47:01.400 : en:00:47:01.400
    00:55:10.280 : en:00:55:10.280
    01:01:35.360 : en:01:01:35.360
    01:04:22.920 : en:01:04:22.920
    01:09:38.280 : en:01:09:38.280
    01:15:50.320 : en:01:15:50.320
    01:23:29.440 : en:01:23:29.440
    01:33:29.560 : en:01:33:29.560
    01:41:41.680 : en:01:41:41.680
  • piratbit.pw



    Скачать Единичка через торрент https://i5.imageban.ru/out/2020/01/14/90b99f3d2e33e4f9b358df11923e795c.png Скачать фильм Единичка через торрент бесплантно в хорошем качестве Описание: Август 1944-го. Советские войска продолжают наступление в Восточной Польше. Подразделение старшего лейтенанта Егорова получает ... 10 10 3
    Info! Золотая раздача, скачанное не засчитывается.
    Торрент: Зарегистрирован [2020-01-14 16:38] · скачан: 99 раз
    Статус: √ проверено
    Размер: 4.12 GB
    Как cкачать? Как скачать Единичка через торрент | qTorrent

    28-11-2019 20:33  

    Отключить всю рекламу на сайте

      Дорогой пользователь! Огромная просьба, поблагодарите релизера, оцените раздачу и оставьте свои комментарий, если Вы скачали Единичка через торрент бесплатно! Внесите свою лепту в развитие PiratBit!
      Комментировать посты могут только пользователи прошедшие не сложную регистрацию
      Показать сообщения:    

      Единичка через торрент
      Скачать бесплатно Единичка
      Единичка скачать торрент
      Единичка смотреть онлайн
      Cкачать фильм Единичка бесплатно
      Единичка скачать торрент в хорошем качестве
      Единичка смотреть онлайн бесплатно в хорошем качестве


      Вы не можете начинать темы
      Вы не можете отвечать на сообщения
      Вы не можете редактировать свои сообщения
      Вы не можете удалять свои сообщения
      Вы не можете голосовать в опросах
      Вы не можете прикреплять файлы к сообщениям
      Вы можете скачивать файлы