Ссылка на приватное зеркало нашего сайта всего за 1$. Внимание количество ограничено!!!

2 сезон

iTunes

1 сезон

1

iTunes

iTunes

iTunes

1 сезон

RePack

30

ИГРА 18+

pack

ВАЖНО

!!Акция!!

Alien_RageХит недели

RePack

MK11
pack

Забери бонус

RePack

jed

!!Акция!!

Alien_Rage

RePack

fifa19

RePack

Assassins Creed: Odyssey

RePack

NEED FOR SPEED™ PAYBACK

4 сезон

9 сезон

Бесстыжие 9 сезон

Все сериалы

все сериалы на PB.wtf

RePack

FAR CRY 5
  

Мать Иоанна от ангелов / Matka Joanna od aniolow (Ежи Кавалерович) [1961, ужасы, драма, детектив, BDRip 1080p by msltel] DUB piratbit.pw

Мать Иоанна от ангелов через торрент piratbit.pw

Размер: 10.14 GB | Добавлен: 9 мес. назад | Торрент скачан:7 раз
Скачать  

11-01-2020 07:18 Мать Иоанна от ангелов Скачать торрент  

Название: Мать Иоанна от ангелов
Оригинальное название: Matka Joanna od aniolow
Год выпуска: 1961
Страна: Польша
Жанр: ужасы, драма, детектив
Продолжительность: 01:45:36
Перевод: дублированный

Режиссер: Ежи Кавалерович
В ролях: Люцина Винницка, Мечислав Войт, Анна Чепелевска, Мария Хвалибог, Станислав Ясюкевич, Зыгмунт Зинтель, Ежи Качмарек, Франчишек Печка, Ярослав Кушевский

О фильме: Действие фильма разворачивается в XVII веке в женском монастыре. Настоятельницу мать Иоанну одолевают демоны. Чтобы изгнать их, в монастырь направляют ксендза Сурена. Однако ему поначалу не удаётся справиться с ситуацией, и лишь жертвоприношение Сурена помогает настоятельнице освободиться от козней Лукавого... Фильм по повести Ярослава Ивашкевича. В основе сюжета реальный исторический факт: имевшая место в 1634 году коллективная истерия монашек из монастыря урсулинок в Лудене (Франция).



Качество: BDRip 1080p
Формат: MKV
Видео: MPEG-4 AVC, 13.4 Mбит/с, 1420x1080, 23.976 Кадр/с
Аудио 1: русский, AC3, 192 kbps, 2 ch, 48 kHz [дублированный, к/с им. Горького]
Аудио 2: польский, AC3, 192 kbps, 2 ch, 48 kHz [оригинал]
Главы/чаптеры
Общее
Уникальный идентификатор : 218653861194101713356462468758282627396 (0xA47F33ADF245BE14A114F3B410D6E944)
Полное имя : D:\Video\Мать Иоанна от ангелов.1961.BDRip 1080p by msltel.mkv
Формат : Matroska
Версия формата : Version 4
Размер файла : 10,1 Гбайт
Продолжительность : 1 ч. 45 м.
Общий поток : 13,7 Мбит/сек
Название фильма : Rip by msltel
Дата кодирования : UTC 2020-01-11 03:04:52
Программа кодирования : mkvmerge v8.2.0 ('World of Adventure') 64bit
Библиотека кодирования : libebml v1.3.1 + libmatroska v1.4.2

Видео
Идентификатор : 1
Формат : AVC
Формат/Информация : Advanced Video Codec
Профиль формата : High@L4.1
Настройки формата : CABAC / 4 Ref Frames
Параметр CABAC формата : Да
Параметр RefFrames формата : 4 кадра
Идентификатор кодека : V_MPEG4/ISO/AVC
Продолжительность : 1 ч. 45 м.
Битрейт : 13,4 Мбит/сек
Ширина : 1420 пикселей
Высота : 1080 пикселей
Соотношение сторон : 4:3
Режим частоты кадров : Постоянный
Частота кадров : 29,970 (30000/1001) кадров/сек
Цветовое пространство : YUV
Субдискретизация насыщенности : 4:2:0
Битовая глубина : 8 бит
Тип развёртки : Прогрессивная
Бит/(Пиксели*Кадры) : 0.291
Размер потока : 9,86 Гбайт (97%)
Библиотека кодирования : x264 core 157 r2935 545de2f
Настройки программы : cabac=1 / ref=4 / deblock=1:-2:-2 / analyse=0x3:0x113 / me=umh / subme=11 / psy=1 / psy_rd=1.00:0.15 / mixed_ref=1 / me_range=32 / chroma_me=1 / trellis=2 / 8x8dct=1 / cqm=0 / deadzone=21,11 / fast_pskip=0 / chroma_qp_offset=-3 / threads=6 / lookahead_threads=1 / sliced_threads=0 / nr=0 / decimate=1 / interlaced=0 / bluray_compat=0 / constrained_intra=0 / bframes=8 / b_pyramid=2 / b_adapt=2 / b_bias=0 / direct=1 / weightb=1 / open_gop=0 / weightp=2 / keyint=288 / keyint_min=28 / scenecut=40 / intra_refresh=0 / rc_lookahead=40 / rc=crf / mbtree=0 / crf=14.7 / qcomp=0.60 / qpmin=0 / qpmax=69 / qpstep=4 / vbv_maxrate=50000 / vbv_bufsize=62500 / crf_max=0.0 / nal_hrd=none / filler=0 / ip_ratio=1.40 / pb_ratio=1.30 / aq=1:1.00
Язык : Polish
Default : Да
Forced : Нет

Аудио #1
Идентификатор : 2
Формат : AC-3
Формат/Информация : Audio Coding 3
Коммерческое название : Dolby Digital
Идентификатор кодека : A_AC3
Продолжительность : 1 ч. 45 м.
Вид битрейта : Постоянный
Битрейт : 192 Кбит/сек
Каналы : 2 канала
ChannelLayout : L R
Частота : 48,0 КГц
Частота кадров : 31,250 кадров/сек (1536 SPF)
Метод сжатия : С потерями
Размер потока : 145 Мбайт (1%)
Заголовок : DUB к/с им. Горького
Язык : Russian
ServiceKind/String : Complete Main
Default : Да
Forced : Нет

Аудио #2
Идентификатор : 3
Формат : AC-3
Формат/Информация : Audio Coding 3
Коммерческое название : Dolby Digital
Идентификатор кодека : A_AC3
Продолжительность : 1 ч. 45 м.
Вид битрейта : Постоянный
Битрейт : 192 Кбит/сек
Каналы : 2 канала
ChannelLayout : L R
Частота : 48,0 КГц
Частота кадров : 31,250 кадров/сек (1536 SPF)
Метод сжатия : С потерями
Размер потока : 145 Мбайт (1%)
Заголовок : original
Язык : Polish
ServiceKind/String : Complete Main
Default : Нет
Forced : Нет

Меню
00:00:00.000 : :Глава 01
00:00:18.018 : :Глава 02
00:02:34.554 : :Глава 03
00:14:50.890 : :Глава 04
00:28:58.336 : :Глава 05
00:38:31.976 : :Глава 06
00:52:35.252 : :Глава 07
01:06:40.463 : :Глава 08
01:18:45.020 : :Глава 09
01:28:43.551 : :Глава 10
01:38:10.417 : :Глава 11
01:44:51.785 : :Глава 12
piratbit.pw



Скачать Мать Иоанна от ангелов через торрент https://c.radikal.ru/c40/2001/54/b6d1b5c887c0.jpg Скачать фильм Мать Иоанна от ангелов через торрент бесплантно в хорошем качестве О фильме: Действие фильма разворачивается в XVII веке в женском монастыре. Настоятельницу мать Иоанну одолевают демоны. Чтобы изгнать их, в ... 5 10 1
Info! Золотая раздача, скачанное не засчитывается.
Торрент: Зарегистрирован [2020-01-11 07:18] · скачан: 7 раз
Статус: √ проверено
Размер: 10.14 GB
Как cкачать? Как скачать Мать Иоанна от ангелов через торрент | qTorrent

% Раздел Тема Автор DL S | L
Классика зарубежного кино [ 3.82 GB ] Мать Иоанна от ангелов / Matka Joanna od aniolow [1961 BDRip 720p by msltel] DUB msltel Скачать
1 | 0
Классика зарубежного кино [ 2.1 GB ] Мать Иоанна от ангелов / Matka Joanna od aniolow [1961 BDRip-AVC by msltel] DUB msltel Скачать
1 | 0

28-11-2019 20:33  

Отключить всю рекламу на сайте

    Дорогой пользователь! Огромная просьба, поблагодарите релизера, оцените раздачу и оставьте свои комментарий, если Вы скачали Мать Иоанна от ангелов через торрент бесплатно! Внесите свою лепту в развитие PiratBit!
    Комментировать посты могут только пользователи прошедшие не сложную регистрацию
    Показать сообщения:    

    Мать Иоанна от ангелов через торрент
    Скачать бесплатно Мать Иоанна от ангелов
    Мать Иоанна от ангелов скачать торрент
    Мать Иоанна от ангелов смотреть онлайн
    Cкачать фильм Мать Иоанна от ангелов бесплатно
    Мать Иоанна от ангелов скачать торрент в хорошем качестве
    Мать Иоанна от ангелов смотреть онлайн бесплатно в хорошем качестве


    Вы не можете начинать темы
    Вы не можете отвечать на сообщения
    Вы не можете редактировать свои сообщения
    Вы не можете удалять свои сообщения
    Вы не можете голосовать в опросах
    Вы не можете прикреплять файлы к сообщениям
    Вы можете скачивать файлы