Ссылка на приватное зеркало всего за 1$. Внимание количество ограничено!!!

OK

1+1

iTunes

мы

OK

1

WEB-DLRip

Джокер

Пифагор

Ведьмак / The Witcher сериал

iTunes

ПШазам

ОК

Оно 2

iTunes

30
pack

Вам бонус

ВАЖНО

!!Акция!!

Alien_RageХит недели

RePack

Resident Evil 21

ИГРА 18+

pack

RePack

jed

RePack

fifa19

RePack

Assassins Creed: Odyssey

RePack

NEED FOR SPEED™ PAYBACK

4 сезон

9 сезон

Бесстыжие 9 сезон

Все сериалы

все сериалы на PB.wtf

RePack

FAR CRY 5
  

Суд над Кристиной Килер / The Trial of Christine Keeler / Сезон: 1 / Серии: 1-4 из 6 (Андреа Харкин, Линн Уэлхэм) [2019, Драма, WEB-DL 1080p] MVO [TVShows] piratbit.pw

Суд над Кристиной Килер через торрент piratbit.pw

Размер: 14.23 GB | Добавлен: 7 д. назад | Торрент скачан:1 раз
Скачать  

10-01-2020 13:18 Суд над Кристиной Килер Скачать торрент  

Суд над Кристиной Килер / The Trial of Christine Keeler Год выпуска: 2019
Страна: Великобритания
Жанр: Драма
Продолжительность: ~ 00:55:00 серия
Перевод: Профессиональный (многоголосый) | TVShows
Субтитры: Английские

Режиссер: Андреа Харкин, Линн Уэлхэм

rating

В ролях: Хлоя Харрис, Элли Бамбер, Софи Куксон, Эмилия Фокс, Розалинд Халстэд, Бен Майлз, Джеймс Нортон, Нэйтан Стюарт-Джарретт, Энтони Уэльс, Шарлин Бойд

Описание: История Кристин Килер, которая оказалась в центре политического сексуального скандала, потрясшего британское правительство в 1960-х годах.

Качество: WEB-DL 1080p
Формат: MKV

Видео: MPEG-4 AVC, 1920x960, 25 fps, ~8553 kbps
Аудио 1: Русский, AC3, 48 kHz, 6 ch, 384 kbps
Аудио 2: Английский, E-AC3, 48 kHz, 6 ch, 640 kbps
скриншот  скриншот  скриншот  скриншот  

General
Unique ID : 126740816738131290639823154370138073309 (0x5F5964B6BA5676C37289ADC10A3FE8DD)
Complete name : The.Trial.Of.Christine.Keeler.S01E01.1080p.TVShows.mkv
Format : Matroska
Format version : Version 4 / Version 2
File size : 3.97 GiB
Duration : 59 min 15 s
Overall bit rate : 9 580 kb/s
Encoded date : UTC 2020-01-10 12:22:03
Writing application : mkvmerge v33.1.0 ('Primrose') 64-bit
Writing library : libebml v1.3.7 + libmatroska v1.5.0

Video
ID : 1
Format : AVC
Format/Info : Advanced Video Codec
Format profile : High@L4
Format settings, CABAC : Yes
Format settings, ReFrames : 4 frames
Codec ID : V_MPEG4/ISO/AVC
Duration : 59 min 15 s
Bit rate mode : Constant
Bit rate : 8 553 kb/s
Nominal bit rate : 10 000 kb/s
Width : 1 920 pixels
Height : 960 pixels
Display aspect ratio : 2.000
Frame rate mode : Constant
Frame rate : 25.000 FPS
Color space : YUV
Chroma subsampling : 4:2:0
Bit depth : 8 bits
Scan type : Progressive
Bits/(Pixel*Frame) : 0.186
Stream size : 3.54 GiB (89%)
Default : Yes
Forced : No
Color range : Limited
Color primaries : BT.709
Transfer characteristics : BT.709
Matrix coefficients : BT.709

Audio #1
ID : 2
Format : AC-3
Format/Info : Audio Coding 3
Mode extension : CM (complete main)
Format settings, Endianness : Big
Codec ID : A_AC3
Duration : 59 min 15 s
Bit rate mode : Constant
Bit rate : 384 kb/s
Channel(s) : 6 channels
Channel positions : Front: L C R, Side: L R, LFE
Sampling rate : 48.0 kHz
Frame rate : 31.250 FPS (1536 spf)
Bit depth : 16 bits
Compression mode : Lossy
Stream size : 163 MiB (4%)
Title : TVShows
Language : Russian
Default : Yes
Forced : Yes

Audio #2
ID : 3
Format : E-AC-3
Format/Info : Enhanced Audio Coding 3
Format settings, Endianness : Big
Codec ID : A_EAC3
Duration : 59 min 15 s
Bit rate mode : Constant
Bit rate : 640 kb/s
Channel(s) : 6 channels
Channel positions : Front: L C R, Side: L R, LFE
Sampling rate : 48.0 kHz
Frame rate : 187.500 FPS (256 spf)
Compression mode : Lossy
Stream size : 271 MiB (7%)
Title : Original
Language : English
Default : No
Forced : No

Text
ID : 4
Format : UTF-8
Codec ID : S_TEXT/UTF8
Codec ID/Info : UTF-8 Plain Text
Duration : 58 min 12 s
Bit rate : 71 b/s
Count of elements : 934
Stream size : 30.4 KiB (0%)
Title : English
Language : English
Default : No
Forced : No

При каждом добавлении создаётся новый торрент. Чтобы начать докачку новой серии, пользователям необходимо сделать следующее:

остановить скачивание,
удалить старый торрент у себя из клиента (старые серии удалять не надо),
скачать новый торрент и запустить его у себя в клиенте вместо старого, при этом указать клиенту путь в старую папку куда и должно происходить скачивание новых серий.

Ваш клиент при этом должен произвести хеширование (проверку) старой папки (если не производит сам - помогите ему сделать это), и будет докачивать только те серии которых у вас ещё нет. Старые серии при этом не удаляются, а продолжают раздаваться!
Eсли вы уже удалили старые серии, то предотвратить повторную закачку старых серий можно, отжав галочку в соответствующих местах при запуске нового торрента. По возможности, желательно не удалять старые серии как можно дольше чтобы релизёр не столько продолжал раздавать старые серии, а смог сконцентрироваться на новых.
piratbit.pw



Скачать Суд над Кристиной Килер через торрент https://i111.fastpic.ru/big/2020/0110/27/a0113701a77b7c24d33349b76b789127.jpg Скачать фильм Суд над Кристиной Килер через торрент бесплантно в хорошем качестве Описание: История Кристин Килер, которая оказалась в центре политического сексуального скандала, потрясшего британское правительство в ... 8.7 10 3
Торрент: Зарегистрирован [2020-01-16 18:11] · скачан: 1 раз
Статус: √ проверено
Размер: 14.23 GB
Как cкачать? Как скачать Суд над Кристиной Килер через торрент | qTorrent

% Раздел Тема Автор DL S | L
Зарубежные сериалы [ 8.9 GB ] Суд над Кристиной Килер / The Trial of Christine Keeler / Сезон: 1 / Серии: 1-4 из 6 [2019 WEBRip 720p] MVO [TVShows] bober100 Скачать
1 | 1

28-11-2019 20:33  

Отключить всю рекламу на сайте

    Дорогой пользователь! Огромная просьба, поблагодарите релизера, оцените раздачу и оставьте свои комментарий, если Вы скачали Суд над Кристиной Килер через торрент бесплатно! Внесите свою лепту в развитие PiratBit!
    Комментировать посты могут только пользователи прошедшие не сложную регистрацию
    Показать сообщения:    

    Суд над Кристиной Килер через торрент
    Скачать бесплатно Суд над Кристиной Килер
    Суд над Кристиной Килер скачать торрент
    Суд над Кристиной Килер смотреть онлайн
    Cкачать фильм Суд над Кристиной Килер бесплатно
    Суд над Кристиной Килер скачать торрент в хорошем качестве
    Суд над Кристиной Килер смотреть онлайн бесплатно в хорошем качестве


    Вы не можете начинать темы
    Вы не можете отвечать на сообщения
    Вы не можете редактировать свои сообщения
    Вы не можете удалять свои сообщения
    Вы не можете голосовать в опросах
    Вы не можете прикреплять файлы к сообщениям
    Вы можете скачивать файлы