Ссылка на приватное зеркало всего за 1$. Внимание количество ограничено!!!

OK

1+1

iTunes

мы

OK

1

WEB-DLRip

Джокер

Пифагор

Ведьмак / The Witcher сериал

iTunes

ПШазам

ОК

Оно 2

iTunes

30
pack

Вам бонус

ВАЖНО

!!Акция!!

Alien_RageХит недели

RePack

Resident Evil 21

ИГРА 18+

pack

RePack

jed

RePack

fifa19

RePack

Assassins Creed: Odyssey

RePack

NEED FOR SPEED™ PAYBACK

4 сезон

9 сезон

Бесстыжие 9 сезон

Все сериалы

все сериалы на PB.wtf

RePack

FAR CRY 5
  

Суд над Кристиной Килер / The Trial of Christine Keeler / Сезон: 1 / Серии: 1-4 из 6 (Андреа Харкин, Линн Уэлхэм) [2019, Драма, WEBRip 720p] MVO [TVShows] piratbit.pw

Суд над Кристиной Килер через торрент piratbit.pw

Размер: 8.9 GB | Добавлен: 7 д. назад | Торрент скачан:2 раза
Скачать  

10-01-2020 13:18 Суд над Кристиной Килер Скачать торрент  

Суд над Кристиной Килер | The Trial of Christine Keeler Год выпуска: 2019
Страна: Великобритания
Жанр: Драма
Продолжительность: ~ 00:55:00 серия
Перевод: Профессиональный (многоголосый) | TVShows
Субтитры: Английские

Режиссер: Андреа Харкин, Линн Уэлхэм

rating

В ролях: Хлоя Харрис, Элли Бамбер, Софи Куксон, Эмилия Фокс, Розалинд Халстэд, Бен Майлз, Джеймс Нортон, Нэйтан Стюарт-Джарретт, Энтони Уэльс, Шарлин Бойд

Описание: История Кристин Килер, которая оказалась в центре политического сексуального скандала, потрясшего британское правительство в 1960-х годах.

Качество: WEBRip 720p
Формат: MKV

Видео: MPEG-4 AVC, ~ 4400 Кбит/с, 1280x720
Аудио#1: Русский (AC3, 6 ch, 384 Кбит/с)
Аудио#2: английский (E-AC3, 6 ch, 640 Кбит/с)
скриншот  скриншот  скриншот  скриншот  скриншот  
скриншот  

Общее
Уникальный идентификатор : 70038440451041429265383315848354128029 (0x34B0E9B88D37338D12B1CE1F8B90E09D)
Полное имя : D:\The.Trial.Of.Christine.Keeler.S01.720p.TVShows\The.Trial.Of.Christine.Keeler.S01E03.720p.TVShows.mkv
Формат : Matroska
Версия формата : Version 4 / Version 2
Размер файла : 2,21 Гбайт
Продолжительность : 58 м. 18 с.
Общий поток : 5418 Кбит/сек
Дата кодирования : UTC 2020-01-11 10:00:18
Программа кодирования : mkvmerge v33.1.0 ('Primrose') 64-bit
Библиотека кодирования : libebml v1.3.7 + libmatroska v1.5.0

Видео
Идентификатор : 1
Формат : AVC
Формат/Информация : Advanced Video Codec
Профиль формата : Main@L3.1
Параметр CABAC формата : Да
Параметр RefFrames формата : 2 кадра
Идентификатор кодека : V_MPEG4/ISO/AVC
Продолжительность : 58 м. 18 с.
Битрейт : 4391 Кбит/сек
Ширина : 1280 пикселей
Высота : 720 пикселей
Соотношение сторон : 16:9
Режим частоты кадров : Постоянный
Частота кадров : 25,000 кадров/сек
Цветовое пространство : YUV
Субдискретизация насыщенности : 4:2:0
Битовая глубина : 8 бит
Тип развёртки : Прогрессивная
Бит/(Пиксели*Кадры) : 0.191
Размер потока : 1,79 Гбайт (81%)
Default : Да
Forced : Нет

Аудио #1
Идентификатор : 2
Формат : AC-3
Формат/Информация : Audio Coding 3
Расширение режима : CM (complete main)
Параметр Endianness формата : Big
Идентификатор кодека : A_AC3
Продолжительность : 58 м. 18 с.
Вид битрейта : Постоянный
Битрейт : 384 Кбит/сек
Каналы : 6 каналов
Расположение каналов : Front: L C R, Side: L R, LFE
Частота : 48,0 КГц
Частота кадров : 31,250 кадров/сек (1536 spf)
Метод сжатия : С потерями
Размер потока : 160 Мбайт (7%)
Заголовок : TVShows
Язык : Russian
Default : Да
Forced : Да

Аудио #2
Идентификатор : 3
Формат : E-AC-3
Формат/Информация : Audio Coding 3
Параметр Endianness формата : Big
Идентификатор кодека : A_EAC3
Продолжительность : 58 м. 18 с.
Вид битрейта : Постоянный
Битрейт : 640 Кбит/сек
Каналы : 6 каналов
Расположение каналов : Front: L C R, Side: L R, LFE
Частота : 48,0 КГц
Частота кадров : 187,500 кадров/сек (256 spf)
Метод сжатия : С потерями
Размер потока : 267 Мбайт (12%)
Заголовок : Original
Язык : English
Default : Нет
Forced : Нет

Текст
Идентификатор : 4
Формат : UTF-8
Идентификатор кодека : S_TEXT/UTF8
Идентификатор кодека/Информация : UTF-8 Plain Text
Продолжительность : 57 м. 46 с.
Битрейт : 82 бит/сек
ElementCount : 973
Размер потока : 35,0 Кбайт (0%)
Заголовок : English
Язык : English
Default : Нет
Forced : Нет

При каждом добавлении создаётся новый торрент. Чтобы начать докачку новой серии, пользователям необходимо сделать следующее:

остановить скачивание,
удалить старый торрент у себя из клиента (старые серии удалять не надо),
скачать новый торрент и запустить его у себя в клиенте вместо старого, при этом указать клиенту путь в старую папку куда и должно происходить скачивание новых серий.

Ваш клиент при этом должен произвести хеширование (проверку) старой папки (если не производит сам - помогите ему сделать это), и будет докачивать только те серии которых у вас ещё нет. Старые серии при этом не удаляются, а продолжают раздаваться!
Eсли вы уже удалили старые серии, то предотвратить повторную закачку старых серий можно, отжав галочку в соответствующих местах при запуске нового торрента. По возможности, желательно не удалять старые серии как можно дольше чтобы релизёр не столько продолжал раздавать старые серии, а смог сконцентрироваться на новых.
piratbit.pw



Скачать Суд над Кристиной Килер через торрент https://c.radikal.ru/c08/2001/30/a38cd8077aa6.jpg Скачать фильм Суд над Кристиной Килер через торрент бесплантно в хорошем качестве Описание: История Кристин Килер, которая оказалась в центре политического сексуального скандала, потрясшего британское правительство в ... 9 10 5
Торрент: Зарегистрирован [2020-01-16 18:10] · скачан: 2 раз
Статус: √ проверено
Размер: 8.9 GB
Как cкачать? Как скачать Суд над Кристиной Килер через торрент | qTorrent

% Раздел Тема Автор DL S | L
Зарубежные сериалы [ 14.23 GB ] Суд над Кристиной Килер / The Trial of Christine Keeler / Сезон: 1 / Серии: 1-4 из 6 [2019 WEB-DL 1080p] MVO [TVShows] bober100 Скачать
1 | 0

28-11-2019 20:33  

Отключить всю рекламу на сайте

    Дорогой пользователь! Огромная просьба, поблагодарите релизера, оцените раздачу и оставьте свои комментарий, если Вы скачали Суд над Кристиной Килер через торрент бесплатно! Внесите свою лепту в развитие PiratBit!
    Комментировать посты могут только пользователи прошедшие не сложную регистрацию
    Показать сообщения:    

    Суд над Кристиной Килер через торрент
    Скачать бесплатно Суд над Кристиной Килер
    Суд над Кристиной Килер скачать торрент
    Суд над Кристиной Килер смотреть онлайн
    Cкачать фильм Суд над Кристиной Килер бесплатно
    Суд над Кристиной Килер скачать торрент в хорошем качестве
    Суд над Кристиной Килер смотреть онлайн бесплатно в хорошем качестве


    Вы не можете начинать темы
    Вы не можете отвечать на сообщения
    Вы не можете редактировать свои сообщения
    Вы не можете удалять свои сообщения
    Вы не можете голосовать в опросах
    Вы не можете прикреплять файлы к сообщениям
    Вы можете скачивать файлы