Ссылка на приватное зеркало нашего сайта всего за 1$. Внимание количество ограничено!!!

2 сезон

iTunes

1 сезон

1

iTunes

iTunes

iTunes

1 сезон

RePack

30

ИГРА 18+

pack

ВАЖНО

!!Акция!!

Alien_RageХит недели

RePack

MK11
pack

Забери бонус

RePack

jed

!!Акция!!

Alien_Rage

RePack

fifa19

RePack

Assassins Creed: Odyssey

RePack

NEED FOR SPEED™ PAYBACK

4 сезон

9 сезон

Бесстыжие 9 сезон

Все сериалы

все сериалы на PB.wtf

RePack

FAR CRY 5
  

Мотивы славы / Tunes of Glory (Роналд Ним) [1960, драма, BDRip-AVC by msltel] MVO piratbit.pw

Мотивы славы через торрент piratbit.pw

Размер: 2.44 GB | Добавлен: 9 мес. назад | Торрент скачан:0 раз
Скачать  

10-01-2020 08:48 Мотивы славы Скачать торрент  

Название: Мотивы славы
Оригинальное название: Tunes of Glory
Год выпуска: 1960
Страна: Великобритания
Жанр: драма
Продолжительность: 01:47:36
Перевод: профессиональный многоголосый

Режиссер: Роналд Ним
В ролях: Алек Гиннесс, Джон Миллс, Деннис Прайс, Кэй Уолш, Джон Фрэйзер, Гордон Джексон, Сюзанна Йорк, Данкан Макрэй

О фильме: Майор Джок Синклер является исполняющим обязанности полковника в Шотландском батальоне, недавно вернувшемся со Второй мировой войны. Джок — харизматический лидер, склонный к злоупотреблению виски и закрывающий глаза на устав и правила. Однако ему на замену присылают полковника Бэрроу, выпускника Оксфорда, героя японской кампании, в последнее время преподававшего в военной академии Сэндхерст. Два противоположных характера моментально сталкиваются, и борьба между этими людьми приведёт к трагедии… Фильм основан на романе Джеймса Кеннауэя.



Качество: BDRip-AVC
Формат: MKV
Видео: MPEG-4 AVC, 2863 Кбит/с, 960x576, 23.976 кадр/с
Аудио 1: русский, AC3, 192 kbps, 2 ch, 48 kHz [закадровый многоголосый]
Аудио 2: английский, AC3, 192 kbps, 1 ch, 48 kHz [оригинал]
Субтитры 1: русские (на места без перевода)
Субтитры 2: английские
Главы/чаптеры
Общее
Уникальный идентификатор : 200162737677655942535209105796431014028 (0x9695F0E6F97E6F478C34696FE67AE88C)
Полное имя : D:\Video\Мотивы славы.1960.BDRip-AVC by msltel.mkv
Формат : Matroska
Версия формата : Version 4
Размер файла : 2,44 Гбайт
Продолжительность : 1 ч. 47 м.
Общий поток : 3249 Кбит/сек
Название фильма : Rip by msltel
Дата кодирования : UTC 2020-01-10 07:58:25
Программа кодирования : mkvmerge v8.2.0 ('World of Adventure') 64bit
Библиотека кодирования : libebml v1.3.1 + libmatroska v1.4.2

Видео
Идентификатор : 1
Формат : AVC
Формат/Информация : Advanced Video Codec
Профиль формата : High@L4.1
Настройки формата : CABAC / 9 Ref Frames
Параметр CABAC формата : Да
Параметр RefFrames формата : 9 кадров
Идентификатор кодека : V_MPEG4/ISO/AVC
Продолжительность : 1 ч. 47 м.
Битрейт : 2863 Кбит/сек
Ширина : 960 пикселей
Высота : 576 пикселей
Соотношение сторон : 5:3
Режим частоты кадров : Постоянный
Частота кадров : 23,976 (24000/1001) кадра/сек
Цветовое пространство : YUV
Субдискретизация насыщенности : 4:2:0
Битовая глубина : 8 бит
Тип развёртки : Прогрессивная
Бит/(Пиксели*Кадры) : 0.216
Размер потока : 2,15 Гбайт (88%)
Библиотека кодирования : x264 core 157 r2935 545de2f
Настройки программы : cabac=1 / ref=9 / deblock=1:-2:-2 / analyse=0x3:0x113 / me=umh / subme=11 / psy=1 / psy_rd=1.00:0.15 / mixed_ref=1 / me_range=32 / chroma_me=1 / trellis=2 / 8x8dct=1 / cqm=0 / deadzone=21,11 / fast_pskip=0 / chroma_qp_offset=-3 / threads=6 / lookahead_threads=1 / sliced_threads=0 / nr=0 / decimate=1 / interlaced=0 / bluray_compat=0 / constrained_intra=0 / bframes=14 / b_pyramid=2 / b_adapt=2 / b_bias=0 / direct=1 / weightb=1 / open_gop=0 / weightp=2 / keyint=230 / keyint_min=23 / scenecut=40 / intra_refresh=0 / rc_lookahead=40 / rc=crf / mbtree=0 / crf=21.0 / qcomp=0.60 / qpmin=0 / qpmax=69 / qpstep=4 / vbv_maxrate=50000 / vbv_bufsize=62500 / crf_max=0.0 / nal_hrd=none / filler=0 / ip_ratio=1.40 / pb_ratio=1.30 / aq=1:1.00
Язык : English
Default : Да
Forced : Нет

Аудио #1
Идентификатор : 2
Формат : AC-3
Формат/Информация : Audio Coding 3
Коммерческое название : Dolby Digital
Идентификатор кодека : A_AC3
Продолжительность : 1 ч. 47 м.
Вид битрейта : Постоянный
Битрейт : 192 Кбит/сек
Каналы : 2 канала
ChannelLayout : L R
Частота : 48,0 КГц
Частота кадров : 31,250 кадров/сек (1536 SPF)
Метод сжатия : С потерями
Размер потока : 148 Мбайт (6%)
Заголовок : MVO
Язык : Russian
ServiceKind/String : Complete Main
Default : Да
Forced : Нет

Аудио #2
Идентификатор : 3
Формат : AC-3
Формат/Информация : Audio Coding 3
Коммерческое название : Dolby Digital
Идентификатор кодека : A_AC3
Продолжительность : 1 ч. 47 м.
Вид битрейта : Постоянный
Битрейт : 192 Кбит/сек
Каналы : 1 канал
ChannelLayout : C
Частота : 48,0 КГц
Частота кадров : 31,250 кадров/сек (1536 SPF)
Метод сжатия : С потерями
Размер потока : 148 Мбайт (6%)
Заголовок : original
Язык : English
ServiceKind/String : Complete Main
Default : Нет
Forced : Нет

Текст #1
Идентификатор : 4
Формат : UTF-8
Идентификатор кодека : S_TEXT/UTF8
Идентификатор кодека/Информация : UTF-8 Plain Text
Продолжительность : 44 м. 28 с.
Битрейт : 16 бит/сек
ElementCount : 82
Размер потока : 5,32 Кбайт (0%)
Заголовок : русские на места без перевода
Язык : Russian
Default : Да
Forced : Да

Текст #2
Идентификатор : 5
Формат : UTF-8
Идентификатор кодека : S_TEXT/UTF8
Идентификатор кодека/Информация : UTF-8 Plain Text
Продолжительность : 1 ч. 45 м.
Битрейт : 80 бит/сек
ElementCount : 1677
Размер потока : 62,1 Кбайт (0%)
Заголовок : английские
Язык : English
Default : Нет
Forced : Нет

Меню
00:00:00.000 : en:Opening credits
00:02:48.919 : en:Jock's last day
00:11:08.209 : en:Colonel Barrow
00:15:25.842 : en:Bad form
00:21:30.664 : en:Breakfast with Morag
00:23:50.095 : en:Inspection
00:32:08.009 : en:"Some other time"
00:38:01.738 : en:Mary
00:42:12.280 : en:Dancing class
00:45:37.109 : en:The party
00:55:27.157 : en:Bar brawl
00:59:50.587 : en:A formal inquiry
01:09:54.399 : en:In the mess
01:14:50.277 : en:"The idea"
01:24:18.011 : en:"Jock's decision"
01:31:08.129 : en:"The living and the dead"
01:35:17.962 : en:Full honors
01:47:04.418 : en:End credits
piratbit.pw



Скачать Мотивы славы через торрент https://b.radikal.ru/b40/2001/da/694b94e66544.jpg Скачать фильм Мотивы славы через торрент бесплантно в хорошем качестве О фильме: Майор Джок Синклер является исполняющим обязанности полковника в Шотландском батальоне, недавно вернувшемся со Второй мировой ... 10 10 1
Торрент: Зарегистрирован [2020-01-10 08:48] · скачан: 0 раз
Статус: √ проверено
Размер: 2.44 GB
Как cкачать? Как скачать Мотивы славы через торрент | qTorrent

% Раздел Тема Автор DL S | L
Классика зарубежного кино [ 13.56 GB ] Мотивы славы / Tunes of Glory [1960 BDRip 1080p by msltel] MVO msltel Скачать
1 | 0
Классика зарубежного кино [ 5.12 GB ] Мотивы славы / Tunes of Glory [1960 BDRip 720p by msltel] MVO msltel Скачать
1 | 0

28-11-2019 20:33  

Отключить всю рекламу на сайте

    Дорогой пользователь! Огромная просьба, поблагодарите релизера, оцените раздачу и оставьте свои комментарий, если Вы скачали Мотивы славы через торрент бесплатно! Внесите свою лепту в развитие PiratBit!
    Комментировать посты могут только пользователи прошедшие не сложную регистрацию
    Показать сообщения:    

    Мотивы славы через торрент
    Скачать бесплатно Мотивы славы
    Мотивы славы скачать торрент
    Мотивы славы смотреть онлайн
    Cкачать фильм Мотивы славы бесплатно
    Мотивы славы скачать торрент в хорошем качестве
    Мотивы славы смотреть онлайн бесплатно в хорошем качестве


    Вы не можете начинать темы
    Вы не можете отвечать на сообщения
    Вы не можете редактировать свои сообщения
    Вы не можете удалять свои сообщения
    Вы не можете голосовать в опросах
    Вы не можете прикреплять файлы к сообщениям
    Вы можете скачивать файлы