Ссылка на приватное зеркало всего за 1$. Внимание количество ограничено!!!

iTunes

iTunes

iTunes

1

iTunes

iTunes

iTunes

WEBRip

iTunes

30
pack

$ от Little Big

ВАЖНО

!!Акция!!

Alien_RageХит недели

RePack

Resident Evil 21

ИГРА 18+

pack

RePack

jed

!!Акция!!

Alien_Rage

RePack

fifa19

RePack

Assassins Creed: Odyssey

RePack

NEED FOR SPEED™ PAYBACK

4 сезон

9 сезон

Бесстыжие 9 сезон

Все сериалы

все сериалы на PB.wtf

RePack

FAR CRY 5
  

Манифест / Декларация / Manifest / Сезон: 2 / Серии: 1-13 из 13 (Дин Уайт, Крейг Зиск, Пол Холахан) [2020, Драма, детектив, WEB-DL 1080p] MVO [LostFilm] piratbit.pw

Манифест через торрент piratbit.pw

Размер: 31.56 GB | Добавлен: 4 мес. 6 д. назад | Торрент скачан:13 раз
Скачать  

08-01-2020 21:18 Манифест Скачать торрент  

Манифест | Декларация | Manifest
«In 2013, Flight 828 disappeared. Today, it came home»

Год выпуска: 2020
Страна: США
Студия: Shaftesbury
Жанр: Драма, детектив
Продолжительность: ~ 00:43:00
Перевод: Профессиональный (многоголосый) | LostFilm
Субтитры: Английские (SDH)

Режиссер: Дин Уайт, Крейг Зиск, Пол Холахан

rating

В ролях: Мелисса Роксбур, Джошуа Даллас, Афина Карканис, Дж.Р. Рамирес, Луна Блэйз Бойд, Джек Мессина, Парвин Каур, Тим Мориарти, Альфредо Нарцисо, Кёртисс Кук, Жюльенна Хэнзелка Ким, Дастин Николс, Мэлаки Клири, Дэна Шик, Джеральдин Лир, Шелдон Бест, Хоуп Блэксток, Джоэль де ла Фуэнте

Описание: Окутанная тайнами история произошла с пассажирами и экипажем рейса Монтего 828. Люди, находившиеся в небе несколько часов, попали будто бы во временную петлю, которая заставила их провести пять лет в полете. Однако для главных действующих лиц этот перелет казался мигом. Главные персонажи, которые находились на борту самолета, после приземления обнаруживают, что мир изменился до неузнаваемости. Первое, что они хотят узнать - что стало с их родным и близкими. На удивление многих, жизнь настолько круто перевернулась, что все те, кого они когда-то любили, уже начали новую жизнь без надежды на то, что когда-то встретят близких, полетевших злополучным рейсом.

Качество: WEB-DL 1080p | Без заставки и логотипа LostFilm.
Формат: MKV

Видео: MPEG-4 AVC, ~ 6826 Кбит/с, 1920x1080
Аудио#1 Rus: E-AC-3, 48 kHz, 6 ch, 640 kbps |LostFilm|
Аудио#2 Eng: E-AC-3, 48 kHz, 6 ch, 640 kbps |Original|
скриншот  скриншот  скриншот  скриншот  

Общее
Уникальный идентификатор : 241715156445354224215294815289202115175 (0xB5D8A551E7EB05CF3B2A2B2AD63B0267)
Полное имя : D:\Manifest.2018.S02.1080p.WEB-DL.RUS.LF.tvslf[EniaHD]\Manifest.S02E01.1080p.WEB-DL.RUS.LF.tvslf[EniaHD].mkv
Формат : Matroska
Версия формата : Version 4 / Version 2
Размер файла : 2,39 Гбайт
Продолжительность : 42 м. 10 с.
Общий поток : 8109 Кбит/сек
Название фильма : Manifest, Season 2
Программа кодирования : mkvmerge v42.0.0 ('Overtime') 64-bit
Библиотека кодирования : libebml v1.3.10 + libmatroska v1.5.2
Обложка : Yes
Attachments : small_cover.jpg / cover.jpg

Видео
Идентификатор : 1
Формат : AVC
Формат/Информация : Advanced Video Codec
Профиль формата : High@L4.1
Параметр CABAC формата : Да
Параметр RefFrames формата : 4 кадра
Идентификатор кодека : V_MPEG4/ISO/AVC
Продолжительность : 42 м. 10 с.
Битрейт : 6826 Кбит/сек
Ширина : 1920 пикселей
Высота : 1080 пикселей
Соотношение сторон : 16:9
Режим частоты кадров : Постоянный
Частота кадров : 23,976 (24000/1001) кадра/сек
Цветовое пространство : YUV
Субдискретизация насыщенности : 4:2:0
Битовая глубина : 8 бит
Тип развёртки : Прогрессивная
Бит/(Пиксели*Кадры) : 0.134
Размер потока : 1,96 Гбайт (82%)
Язык : English
Default : Да
Forced : Нет
Цветовой диапазон : Limited
Основные цвета : BT.709
Характеристики трансфера : BT.709
Коэффициенты матрицы : BT.709

Аудио #1
Идентификатор : 2
Формат : E-AC-3
Формат/Информация : Audio Coding 3
Параметр Endianness формата : Big
Идентификатор кодека : A_EAC3
Продолжительность : 42 м. 10 с.
Вид битрейта : Постоянный
Битрейт : 640 Кбит/сек
Каналы : 6 каналов
Расположение каналов : Front: L C R, Side: L R, LFE
Частота : 48,0 КГц
Частота кадров : 187,500 кадров/сек (256 spf)
Метод сжатия : С потерями
Размер потока : 193 Мбайт (8%)
Заголовок : E-AC3 5.1 @ 640kbps - MVO, Lostfilm
Язык : Russian
Default : Да
Forced : Нет

Аудио #2
Идентификатор : 3
Формат : E-AC-3
Формат/Информация : Audio Coding 3
Параметр Endianness формата : Big
Идентификатор кодека : A_EAC3
Продолжительность : 42 м. 10 с.
Вид битрейта : Постоянный
Битрейт : 640 Кбит/сек
Каналы : 6 каналов
Расположение каналов : Front: L C R, Side: L R, LFE
Частота : 48,0 КГц
Частота кадров : 187,500 кадров/сек (256 spf)
Метод сжатия : С потерями
Размер потока : 193 Мбайт (8%)
Заголовок : E-AC3 5.1 @ 640kbps - Original
Язык : English
Default : Нет
Forced : Нет

Текст #1
Идентификатор : 4
Формат : UTF-8
Идентификатор кодека : S_TEXT/UTF8
Идентификатор кодека/Информация : UTF-8 Plain Text
Заголовок : SDH
Язык : English
Default : Нет
Forced : Нет

Текст #2
Идентификатор : 5
Формат : UTF-8
Идентификатор кодека : S_TEXT/UTF8
Идентификатор кодека/Информация : UTF-8 Plain Text
Язык : English
Default : Нет
Forced : Нет

Когда раздача ведётся путём добавления новых серий, при каждом добавлении создётся новый торрент. Чтобы начать докачку новой серии, пользователям необходимо сделать следующее:
(1) остановить скачивание,
(2) удалить старый торрент у себя из клиента (старые серии удалять не надо),
(3) скачать новый торрент и запустить его у себя в клиенте вместо старого, при этом указать клиенту путь в старую папку, куда и должно происходить скачивание новых серий.
Ваш клиент при этом должен произвести хеширование (проверку) старой папки (если не производит сам - помогите ему сделать это), и будет докачивать только те серии, которых у вас ещё нет. Старые серии при этом не удаляются, а продолжают раздаваться!
Eсли вы уже удалили старые серии, то предотвратить повторную закачку старых серий можно, отжав галочку в соответсвующих местах при запуске нового торрента. По возможности, желательно не удалять старые серии как можно дольше, чтобы релизёр не столько продолжал раздавать старые серии, а смог сконцентрироваться на новых.
piratbit.pw



Скачать Манифест через торрент https://i2.imageban.ru/out/2020/01/08/6cb8e846475f6c1d41a56e2d5a87aebb.png Скачать фильм Манифест через торрент бесплантно в хорошем качестве Описание: Окутанная тайнами история произошла с пассажирами и экипажем рейса Монтего 828. Люди, находившиеся в небе несколько часов, попали ... 10 10 4
Торрент: Зарегистрирован [2020-04-09 16:17] · скачан: 13 раз
Статус: √ проверено
Размер: 31.56 GB
Как cкачать? Как скачать Манифест через торрент | qTorrent

% Раздел Тема Автор DL S | L
Зарубежные сериалы [ 6.86 GB ] Манифест / Декларация / Manifest / Сезон: 2 / Серии: 1-13 из 13 [2020 WEBRip] MVO [HDRezka] bober100 Скачать
1 | 0
Зарубежные сериалы [ 23.26 GB ] Манифест / Декларация / Manifest / Сезон: 2 / Серии: 1-13 из 13 [2020 WEB-DL 1080p] MVO [NewStudio] bober100 Скачать
1 | 0
Зарубежные сериалы [ 18.66 GB ] Манифест / Декларация / Manifest / Сезон: 2 / Серии: 1-13 из 13 [2020 WEB-DL 720p] MVO [NewStudio] bober100 Скачать
1 | 0
Зарубежные сериалы [ 9.31 GB ] Манифест / Декларация / Manifest / Сезон: 2 / Серии: 1-6 из 13 [2020 WEB-DL 720p] [MVO] killermax2013 Скачать
1 | 0
Зарубежные сериалы [ 18.3 GB ] Манифест / Декларация / Manifest / Сезон: 2 / Серии: 1-6 из 13 [2020 WEB-DL 1080p] [MVO] killermax2013 Скачать
1 | 0
Зарубежные сериалы [ 18.73 GB ] Манифест / Декларация / Manifest / Сезон: 2 / Серии: 1-13 из 13 [2020 WEB-DL 720p] MVO [LostFilm] bober100 Скачать
1 | 0
Зарубежные сериалы [ 7.77 GB ] Манифест / Декларация / Manifest / Сезон: 2 / Серии: 1-13 из 13 [2020 WEB-DLRip] MVO [LostFilm] bober100 Скачать
2 | 0

28-11-2019 20:33  

Отключить всю рекламу на сайте

    Дорогой пользователь! Огромная просьба, поблагодарите релизера, оцените раздачу и оставьте свои комментарий, если Вы скачали Манифест через торрент бесплатно! Внесите свою лепту в развитие PiratBit!
    Комментировать посты могут только пользователи прошедшие не сложную регистрацию
    Показать сообщения:    

    Манифест через торрент
    Скачать бесплатно Манифест
    Манифест скачать торрент
    Манифест смотреть онлайн
    Cкачать фильм Манифест бесплатно
    Манифест скачать торрент в хорошем качестве
    Манифест смотреть онлайн бесплатно в хорошем качестве


    Вы не можете начинать темы
    Вы не можете отвечать на сообщения
    Вы не можете редактировать свои сообщения
    Вы не можете удалять свои сообщения
    Вы не можете голосовать в опросах
    Вы не можете прикреплять файлы к сообщениям
    Вы можете скачивать файлы