Ссылка на приватное зеркало всего за 1$. Внимание количество ограничено!!!

OK

1+1

iTunes

мы

OK

1

WEB-DLRip

Джокер

Пифагор

Ведьмак / The Witcher сериал

iTunes

ПШазам

ОК

Оно 2

iTunes

30
pack

Вам бонус

ВАЖНО

!!Акция!!

Alien_RageХит недели

RePack

Resident Evil 21

ИГРА 18+

pack

RePack

jed

RePack

fifa19

RePack

Assassins Creed: Odyssey

RePack

NEED FOR SPEED™ PAYBACK

4 сезон

9 сезон

Бесстыжие 9 сезон

Все сериалы

все сериалы на PB.wtf

RePack

FAR CRY 5
  

Манифест / Декларация / Manifest / Сезон: 2 / Серии: 1-2 из 13 (Дин Уайт, Крейг Зиск, Пол Холахан) [2020, Драма, детектив, WEB-DL 720p] MVO [LostFilm] piratbit.pw

Манифест через торрент piratbit.pw

Размер: 3.1 GB | Добавлен: 7 д. назад | Торрент скачан:3 раза
Скачать  

08-01-2020 20:43 Манифест Скачать торрент  

Манифест | Декларация | Manifest
«In 2013, Flight 828 disappeared. Today, it came home»

Год выпуска: 2020
Страна: США
Студия: Shaftesbury
Жанр: Драма, детектив
Продолжительность: ~ 00:43:00
Перевод: Профессиональный (многоголосый) | LostFilm
Субтитры: eng (SDH)

Режиссер: Дин Уайт, Крейг Зиск, Пол Холахан

rating

В ролях: Мелисса Роксбур, Джошуа Даллас, Афина Карканис, Дж.Р. Рамирес, Луна Блэйз Бойд, Джек Мессина, Парвин Каур, Тим Мориарти, Альфредо Нарцисо, Кёртисс Кук, Жюльенна Хэнзелка Ким, Дастин Николс, Мэлаки Клири, Дэна Шик, Джеральдин Лир, Шелдон Бест, Хоуп Блэксток, Джоэль де ла Фуэнте

Описание: Окутанная тайнами история произошла с пассажирами и экипажем рейса Монтего 828. Люди, находившиеся в небе несколько часов, попали будто бы во временную петлю, которая заставила их провести пять лет в полете. Однако для главных действующих лиц этот перелет казался мигом. Главные персонажи, которые находились на борту самолета, после приземления обнаруживают, что мир изменился до неузнаваемости. Первое, что они хотят узнать - что стало с их родным и близкими. На удивление многих, жизнь настолько круто перевернулась, что все те, кого они когда-то любили, уже начали новую жизнь без надежды на то, что когда-то встретят близких, полетевших злополучным рейсом.

Качество: WEB-DL 720p | Без заставки и логотипа LostFilm.
Формат: MKV

Видео: AVC, 1280 x 720 (1.778), 23.976 fps, ~4039 kbps
Аудио#1 Rus: AC-3, 48 kHz, 2 ch, 384 kbps |LostFilm|
Аудио#2 Eng: E-AC-3, 48 kHz, 6 ch, 640 kbps |Original|
скриншот  скриншот  скриншот  скриншот  

Общее
Уникальный идентификатор : 280269622916702198028607885198743535788 (0xD2D9F7470A53CE9D2C1D86C5B40380AC)
Полное имя : E:\_Сериалы\_Сериалы\Манифест\Manifest.S02.WEBDL.720p.LostFilm\Manifest.S02E01.WEBDL.720p.LF.RGzsRutracker.mkv
Формат : Matroska
Версия формата : Version 4
Размер файла : 1,49 Гбайт
Продолжительность : 42 м. 12 с.
Общий поток : 5065 Кбит/сек
Дата кодирования : UTC 2020-01-08 19:50:41
Программа кодирования : mkvmerge v42.0.0 ('Overtime') 64-bit
Библиотека кодирования : libebml v1.3.10 + libmatroska v1.5.2

Видео
Идентификатор : 1
Формат : AVC
Формат/Информация : Advanced Video Codec
Профиль формата : High@L3.1
Настройки формата : CABAC / 4 Ref Frames
Параметр CABAC формата : Да
Параметр RefFrames формата : 4 кадра
Идентификатор кодека : V_MPEG4/ISO/AVC
Продолжительность : 42 м. 11 с.
Вид битрейта : Постоянный
Битрейт : 4039 Кбит/сек
Номинальный битрейт : 6000 Кбит/сек
Ширина : 1280 пикселей
Высота : 720 пикселей
Соотношение сторон : 16:9
Режим частоты кадров : Постоянный
Частота кадров : 23,976 (24000/1001) кадра/сек
Цветовое пространство : YUV
Субдискретизация насыщенности : 4:2:0
Битовая глубина : 8 бит
Тип развёртки : Прогрессивная
Бит/(Пиксели*Кадры) : 0.183
Размер потока : 1,19 Гбайт (80%)
Язык : English
Default : Да
Forced : Нет
Цветовой диапазон : Limited
Основные цвета : BT.709
Характеристики трансфера : BT.709
Коэффициенты матрицы : BT.709

Аудио #1
Идентификатор : 2
Формат : AC-3
Формат/Информация : Audio Coding 3
Коммерческое название : Dolby Digital
Идентификатор кодека : A_AC3
Продолжительность : 42 м. 12 с.
Вид битрейта : Постоянный
Битрейт : 384 Кбит/сек
Каналы : 2 канала
ChannelLayout : L R
Частота : 48,0 КГц
Частота кадров : 31,250 кадров/сек (1536 SPF)
Метод сжатия : С потерями
Размер потока : 116 Мбайт (8%)
Язык : Russian
ServiceKind/String : Complete Main
Default : Да
Forced : Нет

Аудио #2
Идентификатор : 3
Формат : E-AC-3
Формат/Информация : Enhanced AC-3
Коммерческое название : Dolby Digital Plus
Идентификатор кодека : A_EAC3
Продолжительность : 42 м. 11 с.
Вид битрейта : Постоянный
Битрейт : 640 Кбит/сек
Каналы : 6 каналов
ChannelLayout : L R C LFE Ls Rs
Частота : 48,0 КГц
Частота кадров : 31,250 кадров/сек (1536 SPF)
Метод сжатия : С потерями
Размер потока : 193 Мбайт (13%)
Язык : English
ServiceKind/String : Complete Main
Default : Нет
Forced : Нет

Текст
Идентификатор : 4
Формат : UTF-8
Идентификатор кодека : S_TEXT/UTF8
Идентификатор кодека/Информация : UTF-8 Plain Text
Продолжительность : 42 м. 8 с.
Битрейт : 85 бит/сек
ElementCount : 970
Размер потока : 26,4 Кбайт (0%)
Заголовок : English
Язык : English
Default : Нет
Forced : Нет

Когда раздача ведётся путём добавления новых серий, при каждом добавлении создётся новый торрент. Чтобы начать докачку новой серии, пользователям необходимо сделать следующее:
(1) остановить скачивание,
(2) удалить старый торрент у себя из клиента (старые серии удалять не надо),
(3) скачать новый торрент и запустить его у себя в клиенте вместо старого, при этом указать клиенту путь в старую папку, куда и должно происходить скачивание новых серий.
Ваш клиент при этом должен произвести хеширование (проверку) старой папки (если не производит сам - помогите ему сделать это), и будет докачивать только те серии, которых у вас ещё нет. Старые серии при этом не удаляются, а продолжают раздаваться!
Eсли вы уже удалили старые серии, то предотвратить повторную закачку старых серий можно, отжав галочку в соответсвующих местах при запуске нового торрента. По возможности, желательно не удалять старые серии как можно дольше, чтобы релизёр не столько продолжал раздавать старые серии, а смог сконцентрироваться на новых.
piratbit.pw



Скачать Манифест через торрент https://i2.imageban.ru/out/2020/01/08/6cb8e846475f6c1d41a56e2d5a87aebb.png Скачать фильм Манифест через торрент бесплантно в хорошем качестве Описание: Окутанная тайнами история произошла с пассажирами и экипажем рейса Монтего 828. Люди, находившиеся в небе несколько часов, попали ... 10 10 3
Торрент: Зарегистрирован [2020-01-16 18:04] · скачан: 3 раз
Статус: √ проверено
Размер: 3.1 GB
Как cкачать? Как скачать Манифест через торрент | qTorrent

% Раздел Тема Автор DL S | L
Зарубежные сериалы [ 2.85 GB ] Манифест / Декларация / Manifest / Сезон: 2 / Серии: 1-2 из 13 [2020 WEB-DL 720p] MVO [NewStudio] bober100 Скачать
1 | 0
Зарубежные сериалы [ 3.49 GB ] Манифест / Декларация / Manifest / Сезон: 2 / Серии: 1-2 из 13 [2020 WEB-DL 1080p] MVO [NewStudio] bober100 Скачать
1 | 0
Зарубежные сериалы [ 3.14 GB ] Манифест / Декларация / Manifest / Сезон: 2 / Серии: 1-2 из 13 [2020 WEB-DL 720p] [MVO] killermax2013 Скачать
2 | 0
Зарубежные сериалы [ 6.07 GB ] Манифест / Декларация / Manifest / Сезон: 2 / Серии: 1-2 из 13 [2020 WEB-DL 1080p] [MVO] killermax2013 Скачать
1 | 0
Зарубежные сериалы [ 1.58 GB ] Манифест / Декларация / Manifest / Сезон: 2 / Серии: 1-3 из 13 [2020 WEBRip] MVO [HDRezka] bober100 Скачать
1 | 0
Зарубежные сериалы [ 4.82 GB ] Манифест / Декларация / Manifest / Сезон: 2 / Серии: 1-2 из 13 [2020 WEB-DL 1080p] MVO [LostFilm] bober100 Скачать
3 | 0
Зарубежные сериалы [ 1.19 GB ] Манифест / Декларация / Manifest / Сезон: 2 / Серии: 1-2 из 13 [2020 WEB-DLRip] MVO [LostFilm] bober100 Скачать
4 | 0

28-11-2019 20:33  

Отключить всю рекламу на сайте

    Дорогой пользователь! Огромная просьба, поблагодарите релизера, оцените раздачу и оставьте свои комментарий, если Вы скачали Манифест через торрент бесплатно! Внесите свою лепту в развитие PiratBit!
    Комментировать посты могут только пользователи прошедшие не сложную регистрацию
    Показать сообщения:    

    Манифест через торрент
    Скачать бесплатно Манифест
    Манифест скачать торрент
    Манифест смотреть онлайн
    Cкачать фильм Манифест бесплатно
    Манифест скачать торрент в хорошем качестве
    Манифест смотреть онлайн бесплатно в хорошем качестве


    Вы не можете начинать темы
    Вы не можете отвечать на сообщения
    Вы не можете редактировать свои сообщения
    Вы не можете удалять свои сообщения
    Вы не можете голосовать в опросах
    Вы не можете прикреплять файлы к сообщениям
    Вы можете скачивать файлы