Ссылка на приватное зеркало нашего сайта всего за 1$. Внимание количество ограничено!!!

2 сезон

iTunes

1 сезон

1

iTunes

iTunes

iTunes

1 сезон

RePack

30

ИГРА 18+

pack

ВАЖНО

!!Акция!!

Alien_RageХит недели

RePack

MK11
pack

Забери бонус

RePack

jed

!!Акция!!

Alien_Rage

RePack

fifa19

RePack

Assassins Creed: Odyssey

RePack

NEED FOR SPEED™ PAYBACK

4 сезон

9 сезон

Бесстыжие 9 сезон

Все сериалы

все сериалы на PB.wtf

RePack

FAR CRY 5
  

Гибель "Титаника" / A Night To Remember (Рой Уорд Бэйкер) [1958, драма, биография, история, BDRip 1080p by msltel] MVO piratbit.pw

Гибель "Титаника" через торрент piratbit.pw

Размер: 13.88 GB | Добавлен: 9 мес. назад | Торрент скачан:1 раз
Скачать  

07-01-2020 05:56 Гибель "Титаника" Скачать торрент  

Название: Гибель "Титаника"
Оригинальное название: A Night To Remember
Год выпуска: 1958
Страна: Великобритания
Жанр: драма, биография, история
Продолжительность: 02:03:46
Перевод: профессиональный многоголосый

Режиссер: Рой Уорд Бэйкер
В ролях: Кеннет Мур, Рональд Аллен, Роберт Эйрес, Онор Блэкмен, Энтони Бушелл, Джон Кэйрни, Джилл Диксон, Джейн Даунс, Джеймс Дайрнфорт, Майкл Гудлифф, Кеннет Гриффит, Харриэтт Джонс, Фрэнк Лоутон, Ричард Лич, Дэвид МакКаллум, Алек МакКауэн, Ральф Майкл, Лоуренс Нэйсмит, Расселл Напье, Редмонд Филлипс

О фильме: Апрель 1912 года. Лайнер «Титаник», крупнейшее судно своего времени, отправляется в первое плавание со сливками британского и американского общества на борту. После предупреждений об айсбергах от других пароходов капитан Эдвард Джон Смит остаётся равнодушным и продолжает вести судно на большой скорости. Поздно вечером 14 апреля 1912 года «Титаник» сталкивается с айсбергом, повреждая пять отсеков ниже ватерлинии. Томас Эндрюс, конструктор судна, осматривает повреждения и понимает, что корабль скоро затонет, а на борту недостаточно спасательных шлюпок... Экранизация документально-исторической книги Уолтера Лорда «Последняя ночь «Титаника».



Качество: BDRip 1080p
Формат: MKV
Видео: MPEG-4 AVC, 15.5 Mбит/с, 1800х1080, 23.976 кадр/с
Аудио 1: русский, AC3, 192 kbps, 2 ch, 48 kHz [закадровый многоголосый]
Аудио 2: английский, DTS, 384 kbps, 1 ch, 48 kHz [оригинал]
Субтитры: английские
Главы/чаптеры
Общее
Уникальный идентификатор : 193553029332420707617193737596301766613 (0x919CF51ED6CDE4E6A3E197D1C7186FD5)
Полное имя : D:\Video\Гибель Титаника.1958.BDRip 1080p by msltel.mkv
Формат : Matroska
Версия формата : Version 4
Размер файла : 13,9 Гбайт
Продолжительность : 2 ч. 3 м.
Общий поток : 16,1 Мбит/сек
Название фильма : Rip by msltel
Дата кодирования : UTC 2020-01-07 02:39:52
Программа кодирования : mkvmerge v8.2.0 ('World of Adventure') 64bit
Библиотека кодирования : libebml v1.3.1 + libmatroska v1.4.2

Видео
Идентификатор : 1
Формат : AVC
Формат/Информация : Advanced Video Codec
Профиль формата : High@L4.1
Настройки формата : CABAC / 4 Ref Frames
Параметр CABAC формата : Да
Параметр RefFrames формата : 4 кадра
Идентификатор кодека : V_MPEG4/ISO/AVC
Продолжительность : 2 ч. 3 м.
Битрейт : 15,5 Мбит/сек
Ширина : 1800 пикселей
Высота : 1080 пикселей
Соотношение сторон : 5:3
Режим частоты кадров : Постоянный
Частота кадров : 23,976 (24000/1001) кадра/сек
Цветовое пространство : YUV
Субдискретизация насыщенности : 4:2:0
Битовая глубина : 8 бит
Тип развёртки : Прогрессивная
Бит/(Пиксели*Кадры) : 0.332
Размер потока : 13,4 Гбайт (96%)
Библиотека кодирования : x264 core 157 r2935 545de2f
Настройки программы : cabac=1 / ref=4 / deblock=1:-2:-2 / analyse=0x3:0x113 / me=umh / subme=11 / psy=1 / psy_rd=1.00:0.15 / mixed_ref=1 / me_range=32 / chroma_me=1 / trellis=2 / 8x8dct=1 / cqm=0 / deadzone=21,11 / fast_pskip=0 / chroma_qp_offset=-3 / threads=6 / lookahead_threads=1 / sliced_threads=0 / nr=0 / decimate=1 / interlaced=0 / bluray_compat=0 / constrained_intra=0 / bframes=9 / b_pyramid=2 / b_adapt=2 / b_bias=0 / direct=1 / weightb=1 / open_gop=0 / weightp=2 / keyint=230 / keyint_min=23 / scenecut=40 / intra_refresh=0 / rc_lookahead=40 / rc=crf / mbtree=0 / crf=19.8 / qcomp=0.60 / qpmin=0 / qpmax=69 / qpstep=4 / vbv_maxrate=50000 / vbv_bufsize=62500 / crf_max=0.0 / nal_hrd=none / filler=0 / ip_ratio=1.40 / pb_ratio=1.30 / aq=1:1.00
Язык : English
Default : Да
Forced : Нет

Аудио #1
Идентификатор : 2
Формат : AC-3
Формат/Информация : Audio Coding 3
Коммерческое название : Dolby Digital
Идентификатор кодека : A_AC3
Продолжительность : 2 ч. 3 м.
Вид битрейта : Постоянный
Битрейт : 192 Кбит/сек
Каналы : 2 канала
ChannelLayout : L R
Частота : 48,0 КГц
Частота кадров : 31,250 кадров/сек (1536 SPF)
Метод сжатия : С потерями
Размер потока : 170 Мбайт (1%)
Заголовок : MVO
Язык : Russian
ServiceKind/String : Complete Main
Default : Да
Forced : Нет

Аудио #2
Идентификатор : 3
Формат : DTS
Формат/Информация : Digital Theater Systems
Идентификатор кодека : A_DTS
Продолжительность : 2 ч. 3 м.
Вид битрейта : Постоянный
Битрейт : 384 Кбит/сек
Каналы : 1 канал
ChannelLayout : C
Частота : 48,0 КГц
Частота кадров : 93,750 кадра/сек (512 SPF)
Битовая глубина : 24 бит
Метод сжатия : С потерями
Размер потока : 340 Мбайт (2%)
Заголовок : original
Язык : English
Default : Нет
Forced : Нет

Текст
Идентификатор : 4
Формат : UTF-8
Идентификатор кодека : S_TEXT/UTF8
Идентификатор кодека/Информация : UTF-8 Plain Text
Продолжительность : 2 ч. 1 м.
Битрейт : 66 бит/сек
ElementCount : 1675
Размер потока : 58,9 Кбайт (0%)
Заголовок : английские
Язык : English
Default : Нет
Forced : Нет

Меню
00:00:00.000 : en:00:00:00.000
00:03:57.320 : en:00:03:57.320
00:06:08.285 : en:00:06:08.285
00:09:03.835 : en:00:09:03.835
00:10:08.358 : en:00:10:08.358
00:14:12.685 : en:00:14:12.685
00:20:09.625 : en:00:20:09.625
00:26:44.186 : en:00:26:44.186
00:29:28.350 : en:00:29:28.350
00:32:17.060 : en:00:32:17.060
00:35:13.778 : en:00:35:13.778
00:38:30.558 : en:00:38:30.558
00:40:44.817 : en:00:40:44.817
00:44:38.217 : en:00:44:38.217
00:48:13.390 : en:00:48:13.390
00:50:35.074 : en:00:50:35.074
00:54:13.959 : en:00:54:13.959
00:56:41.773 : en:00:56:41.773
00:59:05.459 : en:00:59:05.459
01:03:17.419 : en:01:03:17.419
01:05:43.439 : en:01:05:43.439
01:08:13.840 : en:01:08:13.840
01:09:05.475 : en:01:09:05.475
01:11:15.480 : en:01:11:15.480
01:13:34.493 : en:01:13:34.493
01:16:01.056 : en:01:16:01.056
01:18:08.100 : en:01:18:08.100
01:21:34.723 : en:01:21:34.723
01:25:42.763 : en:01:25:42.763
01:29:30.198 : en:01:29:30.198
01:31:40.286 : en:01:31:40.286
01:34:30.790 : en:01:34:30.790
01:36:41.713 : en:01:36:41.713
01:38:41.290 : en:01:38:41.290
01:41:36.966 : en:01:41:36.966
01:43:34.792 : en:01:43:34.792
01:45:25.444 : en:01:45:25.444
01:52:52.099 : en:01:52:52.099
01:56:53.340 : en:01:56:53.340
02:00:20.088 : en:02:00:20.088
piratbit.pw



Скачать Гибель "Титаника" через торрент https://d.radikal.ru/d32/2001/65/6c16f6b58cf8.jpg Скачать фильм Гибель "Титаника" через торрент бесплантно в хорошем качестве О фильме: Апрель 1912 года. Лайнер «Титаник», крупнейшее судно своего времени, отправляется в первое плавание со сливками британского и ... 10 10 1
Info! Золотая раздача, скачанное не засчитывается.
Торрент: Зарегистрирован [2020-01-07 05:56] · скачан: 1 раз
Статус: √ проверено
Размер: 13.88 GB
Как cкачать? Как скачать Гибель "Титаника" через торрент | qTorrent

28-11-2019 20:33  

Отключить всю рекламу на сайте

07-01-2020 07:21 Гибель "Титаника" Скачать торрент  

Спасибо!!!! Что то я и не слышал об этом фильме выпущеном в 1958 году,заценим)piratbit.pw



    Дорогой пользователь! Огромная просьба, поблагодарите релизера, оцените раздачу и оставьте свои комментарий, если Вы скачали Гибель "Титаника" через торрент бесплатно! Внесите свою лепту в развитие PiratBit!
    Комментировать посты могут только пользователи прошедшие не сложную регистрацию
    Показать сообщения:    

    Гибель "Титаника" через торрент
    Скачать бесплатно Гибель "Титаника"
    Гибель "Титаника" скачать торрент
    Гибель "Титаника" смотреть онлайн
    Cкачать фильм Гибель "Титаника" бесплатно
    Гибель "Титаника" скачать торрент в хорошем качестве
    Гибель "Титаника" смотреть онлайн бесплатно в хорошем качестве


    Вы не можете начинать темы
    Вы не можете отвечать на сообщения
    Вы не можете редактировать свои сообщения
    Вы не можете удалять свои сообщения
    Вы не можете голосовать в опросах
    Вы не можете прикреплять файлы к сообщениям
    Вы можете скачивать файлы