Marvel's Avengers Deluxe Edition (супер цена) 159р. Внимание количество ограничено!!!

2 сезон

iTunes

iTunes

1

iTunes

iTunes

iTunes

WEBRip

iTunes

30
pack

Новость дня

ВАЖНО

!!Акция!!

Alien_RageХит недели

RePack

Horizon Zero Dawn

ИГРА 18+

pack

RePack

jed

!!Акция!!

Alien_Rage

RePack

fifa19

RePack

Assassins Creed: Odyssey

RePack

NEED FOR SPEED™ PAYBACK

4 сезон

9 сезон

Бесстыжие 9 сезон

Все сериалы

все сериалы на PB.wtf

RePack

FAR CRY 5
  

Эбигейл (Александр Богуславский) [2019, приключения, фэнтези, семейный, BDRip 1080p] [iTunes] piratbit.pw

Эбигейл через торрент piratbit.pw

Размер: 8.06 GB | Добавлен: 8 мес. назад | Торрент скачан:206 раз
Скачать  

06-01-2020 11:10 Эбигейл Скачать торрент  

Эбигейл
Год выпуска: 2019
Страна: Россия
Студия: KD Studios
Жанр: приключения, фэнтези, семейный
Продолжительность: 01:46:15
Перевод: Не требуется | iTunes
Субтитры: Французские (полные)

Режиссер: Александр Богуславский

rating

В ролях: Тинатин Далакишвили, Эдди Марсан, Артем Ткаченко, Равшана Куркова, Риналь Мухаметов, Глеб Бочков, Марта Тимофеева, Никита Тарасов, Ксения Кутепова, Петар Зекавица

Описание: Молодая девушка Эбигейл живет в городе, границы которого закрыли много лет назад из-за эпидемии загадочной болезни. Отец Эбби был одним из заболевших - и его забрали, когда ей было шесть лет. Пойдя наперекор властям, чтобы разыскать отца, Эбби узнает о том, что ее город на самом деле полон магии. И в ней самой пробуждаются необыкновенные магические способности...

Качество: BDRip 1080p
Формат: MKV

Видео: 1920x806 (2,40:1), 25 fps, MPEG-4 AVC ~ 9199 Кbps avg, 0.238 bit/pixel
Аудио#1: AC3, 48 kHz, 6 ch, ~384.00 kbps avg | русский | iTunes
Аудио#2: AC3, 48 kHz, 6 ch, ~640.00 kbps avg | французский | дубляж
Аудио#3: AC3, 48 kHz, 6 ch, ~640.00 kbps avg | английский | дубляж
скриншот  скриншот  скриншот  скриншот  скриншот  

Общее
Уникальный идентификатор : 107370776882119609214069852955357540225 (0x50C6DC03ED9E294AA3949B4C3DD0EF81)
Полное имя : G:Abigail.2019.1080p.Blu.Ray.x264.Rus.Fre.Eng.mkv
Формат : Matroska
Версия формата : Version 4
Размер файла : 8,06 Гбайт
Продолжительность : 1 ч. 46 м.
Общий поток : 10,9 Мбит/сек
Название фильма : Эбигейл (2019)
Дата кодирования : UTC 2020-01-06 10:06:02
Программа кодирования : mkvmerge v41.0.0 ('Smarra') 64-bit
Библиотека кодирования : libebml v1.3.9 + libmatroska v1.5.2
Обложка : Yes
Attachments : cover.jpg / cover.jpg

Видео
Идентификатор : 1
Формат : AVC
Формат/Информация : Advanced Video Codec
Профиль формата : High@L4.1
Настройки формата : CABAC / 4 Ref Frames
Параметр CABAC формата : Да
Параметр RefFrames формата : 4 кадра
Идентификатор кодека : V_MPEG4/ISO/AVC
Продолжительность : 1 ч. 46 м.
Битрейт : 9199 Кбит/сек
Ширина : 1920 пикселей
Высота : 806 пикселей
Соотношение сторон : 2,40:1
Режим частоты кадров : Постоянный
Частота кадров : 25,000 кадров/сек
Цветовое пространство : YUV
Субдискретизация насыщенности : 4:2:0
Битовая глубина : 8 бит
Тип развёртки : Прогрессивная
Бит/(Пиксели*Кадры) : 0.238
Размер потока : 6,82 Гбайт (85%)
Заголовок : #stillet
Библиотека кодирования : x264 core 152 r2851bm ba24899
Настройки программы : cabac=1 / ref=4 / deblock=1:-3:-3 / analyse=0x3:0x133 / me=umh / subme=11 / psy=1 / psy_rd=1.00:0.15 / mixed_ref=1 / me_range=32 / chroma_me=1 / trellis=2 / 8x8dct=1 / cqm=0 / deadzone=21,11 / fast_pskip=0 / chroma_qp_offset=-3 / threads=16 / lookahead_threads=3 / sliced_threads=0 / nr=0 / decimate=0 / interlaced=0 / bluray_compat=0 / constrained_intra=0 / bframes=10 / b_pyramid=2 / b_adapt=2 / b_bias=0 / direct=3 / weightb=1 / open_gop=0 / weightp=2 / keyint=250 / keyint_min=24 / scenecut=40 / intra_refresh=0 / rc=2pass / mbtree=0 / bitrate=9199 / ratetol=1.0 / qcomp=0.60 / qpmin=0 / qpmax=69 / qpstep=4 / cplxblur=20.0 / qblur=0.5 / ip_ratio=1.40 / pb_ratio=1.30 / aq=1:1.00
Язык : French
Default : Да
Forced : Нет

Аудио #1
Идентификатор : 2
Формат : AC-3
Формат/Информация : Audio Coding 3
Коммерческое название : Dolby Digital
Идентификатор кодека : A_AC3
Продолжительность : 1 ч. 46 м.
Вид битрейта : Постоянный
Битрейт : 384 Кбит/сек
Каналы : 6 каналов
ChannelLayout : L R C LFE Ls Rs
Частота : 48,0 КГц
Частота кадров : 31,250 кадров/сек (1536 SPF)
Метод сжатия : С потерями
Размер потока : 292 Мбайт (4%)
Заголовок : iTunes
Язык : Russian
Default : Да
Forced : Нет

Аудио #2
Идентификатор : 3
Формат : AC-3
Формат/Информация : Audio Coding 3
Коммерческое название : Dolby Digital
Идентификатор кодека : A_AC3
Продолжительность : 1 ч. 46 м.
Вид битрейта : Постоянный
Битрейт : 640 Кбит/сек
Каналы : 6 каналов
ChannelLayout : L R C LFE Ls Rs
Частота : 48,0 КГц
Частота кадров : 31,250 кадров/сек (1536 SPF)
Метод сжатия : С потерями
Размер потока : 486 Мбайт (6%)
Заголовок : DUB
Язык : French
Default : Нет
Forced : Нет

Аудио #3
Идентификатор : 4
Формат : AC-3
Формат/Информация : Audio Coding 3
Коммерческое название : Dolby Digital
Идентификатор кодека : A_AC3
Продолжительность : 1 ч. 46 м.
Вид битрейта : Постоянный
Битрейт : 640 Кбит/сек
Каналы : 6 каналов
ChannelLayout : L R C LFE Ls Rs
Частота : 48,0 КГц
Частота кадров : 31,250 кадров/сек (1536 SPF)
Метод сжатия : С потерями
Размер потока : 486 Мбайт (6%)
Заголовок : DUB
Язык : English
Default : Нет
Forced : Нет

Текст
Идентификатор : 5
Формат : UTF-8
Идентификатор кодека : S_TEXT/UTF8
Идентификатор кодека/Информация : UTF-8 Plain Text
Продолжительность : 1 ч. 41 м.
Битрейт : 45 бит/сек
ElementCount : 1044
Размер потока : 33,9 Кбайт (0%)
Заголовок : Full
Язык : French
Default : Нет
Forced : Нет

piratbit.pw



Скачать Эбигейл через торрент https://b.radikal.ru/b34/2001/af/9ef2e632d58a.png Скачать фильм Эбигейл через торрент бесплантно в хорошем качестве Описание: Молодая девушка Эбигейл живет в городе, границы которого закрыли много лет назад из-за эпидемии загадочной болезни. Отец Эбби был ... 8.6 10 5
Торрент: Зарегистрирован [2020-01-06 11:10] · скачан: 206 раз
Статус: √ проверено
Размер: 8.06 GB
Как cкачать? Как скачать Эбигейл через торрент | qTorrent

% Раздел Тема Автор DL S | L
Наши фильмы (HD, WEB-DL 720p, 1080p) [ 3.88 GB ] Эбигейл [2019 BDRip 720p] [Ger Transfer] - KORSAR lesnik125 Скачать
2 | 0
Наши новые фильмы 2018-2019 [ 746 MB ] Эбигейл [2019 HDRip] bober100 Скачать
1 | 0
Наши фильмы (HD, WEB-DL 720p, 1080p) [ 4.5 GB ] Эбигейл [2019 BDRip 720p] bober100 Скачать
1 | 0
Наши фильмы (Blu-ray, BD-Remux, HDDVD) [ 19.76 GB ] Эбигейл [2019 BD Remux 1080i] bober100 Скачать
1 | 0
Наши фильмы (HD, WEB-DL 720p, 1080p) [ 3.28 GB ] Эбигейл [2019 WEB-DL 720p] bober100 Скачать
2 | 0
Наши новые фильмы 2018-2019 [ 1.59 GB ] Эбигейл [2019 WEB-DLRip-AVC] bober100 Скачать
5 | 0
Наши фильмы (HD, WEB-DL 720p, 1080p) [ 3.64 GB ] Эбигейл [2019 WEB-DL 1080p] bober100 Скачать
2 | 0

28-11-2019 20:33  

Отключить всю рекламу на сайте

    Дорогой пользователь! Огромная просьба, поблагодарите релизера, оцените раздачу и оставьте свои комментарий, если Вы скачали Эбигейл через торрент бесплатно! Внесите свою лепту в развитие PiratBit!
    Комментировать посты могут только пользователи прошедшие не сложную регистрацию
    Показать сообщения:    

    Эбигейл через торрент
    Скачать бесплатно Эбигейл
    Эбигейл скачать торрент
    Эбигейл смотреть онлайн
    Cкачать фильм Эбигейл бесплатно
    Эбигейл скачать торрент в хорошем качестве
    Эбигейл смотреть онлайн бесплатно в хорошем качестве


    Вы не можете начинать темы
    Вы не можете отвечать на сообщения
    Вы не можете редактировать свои сообщения
    Вы не можете удалять свои сообщения
    Вы не можете голосовать в опросах
    Вы не можете прикреплять файлы к сообщениям
    Вы можете скачивать файлы