Ссылка на приватное зеркало нашего сайта всего за 1$. Внимание количество ограничено!!!

2 сезон

iTunes

1 сезон

1

iTunes

iTunes

iTunes

1 сезон

RePack

30

ИГРА 18+

pack

ВАЖНО

!!Акция!!

Alien_RageХит недели

RePack

MK11
pack

Забери бонус

RePack

jed

!!Акция!!

Alien_Rage

RePack

fifa19

RePack

Assassins Creed: Odyssey

RePack

NEED FOR SPEED™ PAYBACK

4 сезон

9 сезон

Бесстыжие 9 сезон

Все сериалы

все сериалы на PB.wtf

RePack

FAR CRY 5
  

Праздники любви / Les Fêtes Galantes (Рене Клер) [1965, комедия, военный, история, BDRip-AVC by msltel] MVO piratbit.pw

Праздники любви через торрент piratbit.pw

Размер: 1.82 GB | Добавлен: 9 мес. назад | Торрент скачан:5 раз
Скачать  

06-01-2020 08:16 Праздники любви Скачать торрент  

Название: Праздники любви
Оригинальное название: Les Fêtes Galantes
Год выпуска: 1965
Страна: Франция, Румыния
Жанр: комедия, военный, история
Продолжительность: 01:32:02
Перевод: профессиональный многоголосый

Режиссер: Рене Клер
В ролях: Жан-Пьер Кассель, Филип Аврон, Мари Дюбуа, Женевьев Казиль, Жан Ришар, Дьёрдь Ковач, Фори Этерль, Елена Караджева, Адела Маргулеску, Мелания Сирж, Флорин Василиу, Кристиан Барратье, Жан Папен, Фори Эттерле, Елена Караджиу, Адела Мэркулеску, Мелания Карже, Кристиан Баратье, Жан Пайен, Альфред Адам, Микаэл Берекет, Дем Рэдулеску, Люсия Амрам, Матей Александру, Григоре Василиу-Бирлик

О фильме: Неунывающий капрал Желикер в компании с чудаковатым крестьянином оказывается в гуще невероятных приключений, но умудряется выйти сухим, побывать на празднике любви и даже завершить начавшуюся между двумя королями войну. Итак, перед нами эпоха галантных времён. Желикер помогает спастись от насилия принцессе и, взяв на себя роль ангела-хранителя красотки, ведёт её к возлюбленному. Затем капрал даёт повод подумать воюющим монархам об бесполезности начавшихся военных действий и всем воинам совет, как лучше можно проводить своё время...



Качество: BDRip-AVC
Формат: MKV
Видео: MPEG-4 AVC, 2442 Kбит/с, 956x576, 24 кадр/с
Аудио 1: русский, AC3, 192 kbps, 2 ch, 48 kHz [закадровый многоголосый, Премьер-видео]
Аудио 2: французский, AC3, 192 kbps, 2 ch, 48 kHz [оригинал]
Субтитры 1: французские
Субтитры 2: английские
Главы/чаптеры
Общее
Уникальный идентификатор : 226681251306273410135740888950474596956 (0xAA893891A2320B4F874D82D3CA08E25C)
Полное имя : D:\Video\Праздники любви.1965.BDRip-AVC by msltel.mkv
Формат : Matroska
Версия формата : Version 4
Размер файла : 1,82 Гбайт
Продолжительность : 1 ч. 32 м.
Общий поток : 2828 Кбит/сек
Дата кодирования : UTC 2020-01-06 04:46:02
Программа кодирования : mkvmerge v8.2.0 ('World of Adventure') 64bit
Библиотека кодирования : libebml v1.3.1 + libmatroska v1.4.2

Видео
Идентификатор : 1
Формат : AVC
Формат/Информация : Advanced Video Codec
Профиль формата : High@L4.1
Настройки формата : CABAC / 9 Ref Frames
Параметр CABAC формата : Да
Параметр RefFrames формата : 9 кадров
Идентификатор кодека : V_MPEG4/ISO/AVC
Продолжительность : 1 ч. 32 м.
Битрейт : 2442 Кбит/сек
Ширина : 956 пикселей
Высота : 576 пикселей
Соотношение сторон : 5:3
Режим частоты кадров : Постоянный
Частота кадров : 24,000 кадра/сек
Цветовое пространство : YUV
Субдискретизация насыщенности : 4:2:0
Битовая глубина : 8 бит
Тип развёртки : Прогрессивная
Бит/(Пиксели*Кадры) : 0.185
Размер потока : 1,57 Гбайт (86%)
Библиотека кодирования : x264 core 157 r2935 545de2f
Настройки программы : cabac=1 / ref=9 / deblock=1:-2:-2 / analyse=0x3:0x113 / me=umh / subme=11 / psy=1 / psy_rd=1.00:0.15 / mixed_ref=1 / me_range=32 / chroma_me=1 / trellis=2 / 8x8dct=1 / cqm=0 / deadzone=21,11 / fast_pskip=0 / chroma_qp_offset=-3 / threads=6 / lookahead_threads=1 / sliced_threads=0 / nr=0 / decimate=1 / interlaced=0 / bluray_compat=0 / constrained_intra=0 / bframes=6 / b_pyramid=2 / b_adapt=2 / b_bias=0 / direct=1 / weightb=1 / open_gop=0 / weightp=2 / keyint=230 / keyint_min=23 / scenecut=40 / intra_refresh=0 / rc_lookahead=40 / rc=crf / mbtree=0 / crf=18.7 / qcomp=0.60 / qpmin=0 / qpmax=69 / qpstep=4 / vbv_maxrate=50000 / vbv_bufsize=62500 / crf_max=0.0 / nal_hrd=none / filler=0 / ip_ratio=1.40 / pb_ratio=1.30 / aq=1:1.00
Язык : French
Default : Да
Forced : Нет

Аудио #1
Идентификатор : 2
Формат : AC-3
Формат/Информация : Audio Coding 3
Коммерческое название : Dolby Digital
Идентификатор кодека : A_AC3
Продолжительность : 1 ч. 32 м.
Вид битрейта : Постоянный
Битрейт : 192 Кбит/сек
Каналы : 2 канала
ChannelLayout : L R
Частота : 48,0 КГц
Частота кадров : 31,250 кадров/сек (1536 SPF)
Метод сжатия : С потерями
Размер потока : 126 Мбайт (7%)
Заголовок : MVO Премьер-видео
Язык : Russian
ServiceKind/String : Complete Main
Default : Да
Forced : Нет

Аудио #2
Идентификатор : 3
Формат : AC-3
Формат/Информация : Audio Coding 3
Коммерческое название : Dolby Digital
Идентификатор кодека : A_AC3
Продолжительность : 1 ч. 32 м.
Вид битрейта : Постоянный
Битрейт : 192 Кбит/сек
Каналы : 2 канала
ChannelLayout : L R
Частота : 48,0 КГц
Частота кадров : 31,250 кадров/сек (1536 SPF)
Метод сжатия : С потерями
Размер потока : 126 Мбайт (7%)
Заголовок : original
Язык : French
ServiceKind/String : Complete Main
Default : Нет
Forced : Нет

Текст #1
Идентификатор : 4
Формат : UTF-8
Идентификатор кодека : S_TEXT/UTF8
Идентификатор кодека/Информация : UTF-8 Plain Text
Продолжительность : 1 ч. 31 м.
Битрейт : 47 бит/сек
ElementCount : 1079
Размер потока : 31,9 Кбайт (0%)
Заголовок : французские
Язык : French
Default : Нет
Forced : Нет

Текст #2
Идентификатор : 5
Формат : UTF-8
Идентификатор кодека : S_TEXT/UTF8
Идентификатор кодека/Информация : UTF-8 Plain Text
Продолжительность : 1 ч. 29 м.
Битрейт : 38 бит/сек
ElementCount : 938
Размер потока : 25,5 Кбайт (0%)
Заголовок : английские
Язык : English
Default : Нет
Forced : Нет

Меню
00:00:00.000 : fr:01
00:08:18.333 : fr:02 - :02
00:18:38.708 : fr:03
00:26:19.458 : fr:04
00:35:49.667 : fr:05
00:44:51.458 : fr:06
00:49:58.042 : fr:07
00:59:34.417 : fr:08
01:06:50.375 : fr:09
01:13:39.708 : fr:10
01:19:35.375 : fr:11
01:25:33.000 : fr:12
piratbit.pw



Скачать Праздники любви через торрент https://b.radikal.ru/b12/2001/7b/f3995e2aea6e.jpg Скачать фильм Праздники любви через торрент бесплантно в хорошем качестве О фильме: Неунывающий капрал Желикер в компании с чудаковатым крестьянином оказывается в гуще невероятных приключений, но умудряется выйти ... 5 10 1
Торрент: Зарегистрирован [2020-01-06 08:16] · скачан: 5 раз
Статус: √ проверено
Размер: 1.82 GB
Как cкачать? Как скачать Праздники любви через торрент | qTorrent

% Раздел Тема Автор DL S | L
Классика зарубежного кино [ 9.62 GB ] Праздники любви / Les Fêtes Galantes [1965 военный история BDRip 1080p by msltel] MVO msltel Скачать
1 | 0

28-11-2019 20:33  

Отключить всю рекламу на сайте

    Дорогой пользователь! Огромная просьба, поблагодарите релизера, оцените раздачу и оставьте свои комментарий, если Вы скачали Праздники любви через торрент бесплатно! Внесите свою лепту в развитие PiratBit!
    Комментировать посты могут только пользователи прошедшие не сложную регистрацию
    Показать сообщения:    

    Праздники любви через торрент
    Скачать бесплатно Праздники любви
    Праздники любви скачать торрент
    Праздники любви смотреть онлайн
    Cкачать фильм Праздники любви бесплатно
    Праздники любви скачать торрент в хорошем качестве
    Праздники любви смотреть онлайн бесплатно в хорошем качестве


    Вы не можете начинать темы
    Вы не можете отвечать на сообщения
    Вы не можете редактировать свои сообщения
    Вы не можете удалять свои сообщения
    Вы не можете голосовать в опросах
    Вы не можете прикреплять файлы к сообщениям
    Вы можете скачивать файлы