Ссылка на приватное зеркало нашего сайта всего за 1$. Внимание количество ограничено!!!

2 сезон

iTunes

1 сезон

1

2 сезон

2 сезон

iTunes

1 сезон

RePack

30

Ultimate

ВАЖНО

ИГРА 18+

pack

RePack

MK11
pack

Забери бонус

RePack

jed

!!Акция!!

Alien_Rage

RePack

fifa19

RePack

Assassins Creed: Odyssey

RePack

NEED FOR SPEED™ PAYBACK

4 сезон

9 сезон

Бесстыжие 9 сезон

Все сериалы

все сериалы на PB.wtf

RePack

FAR CRY 5
  

Курьер / The Courier (Закари Адлер) [2019 г., боевик, триллер, драма, WEB-DLRip, Дубляж "iTunes"] piratbit.pw

Курьер через торрент piratbit.pw

Размер: 709 MB | Добавлен: 10 мес. назад | Торрент скачан:136 раз
Скачать  

03-01-2020 18:46 Курьер Скачать торрент  

Курьер / The Courier
Год выпуска: 2019
Страна: Великобритания, США / Rollercoaster Angel Productions, Signature Films
Жанр: боевик, триллер, драма
Продолжительность: 01:39:34
Перевод: Дубляж (iTunes)
Субтитры: Русские форсированные - вшитые

Режиссер: Закари Адлер

rating

В ролях: Ольга Куриленко, Гари Олдман, Амит Шах, Алисия Агнесон, Грег Орвис, Крэйг Конуэй, Уильям Моусли, Дермот Малруни, Гордон Александр, Нил Чапелхау

Описание: На первый взгляд, она - всего лишь курьер на черном мотоцикле, стремительно пронзающем ночной Лондон. Но даже в огромном мегаполисе красотке удается ускользнуть от уличных камер, и ее имя невозможно найти ни в одной базе данных. Именно она, дерзкая и неуловимая, бросит вызов могущественному криминальному боссу. И ему лучше не знать, кто на самом деле эта взрывная брюнетка...

Качество: WEB-DLRip
Формат: AVI
Видео кодек: DivX
Аудио кодек: MP3
Видео: 672x280 (2.40:1), 23.976 fps, DivX Codec 4.x ~857 kbps avg, 0.19 bit/pixel
Аудио: 48 kHz, MPEG Layer 3, 2 ch, ~128.00 kbps avg
скриншот   скриншот   скриншот   скриншот  

Общее
Полное имя : F:\ФИЛЬМЫ\Курьер.2019.D.WEB-DLRip.AMAZON.avi
Формат : AVI
Формат/Информация : Audio Video Interleave
Размер файла : 709 Мбайт
Продолжительность : 1 ч. 39 м.
Общий поток : 995 Кбит/сек
Программа кодирования : VirtualDubMod 1.5.10.3 | www.virtualdub-fr.org || (build 2550/release)
Библиотека кодирования : VirtualDubMod build 2550/release

Видео
Идентификатор : 0
Формат : MPEG-4 Visual
Профиль формата : Advanced Simple@L5
Настройки формата : BVOP3 / GMC3 / QPel
Параметр BVOP формата : 3
Параметр QPel формата : Да
Параметр GMC формата : 3 точки перехода
Параметр матрицы формата : Default (MPEG)
Идентификатор кодека : DIVX
Идентификатор кодека/Информация : Project Mayo
Идентификатор кодека/Подсказка : DivX 4
Продолжительность : 1 ч. 39 м.
Битрейт : 858 Кбит/сек
Ширина : 672 пикселя
Высота : 280 пикселей
Соотношение сторон : 2,40:1
Частота кадров : 23,976 (24000/1001) кадра/сек
Цветовое пространство : YUV
Субдискретизация насыщенности : 4:2:0
Битовая глубина : 8 бит
Тип развёртки : Прогрессивная
Метод сжатия : С потерями
Бит/(Пиксели*Кадры) : 0.190
Размер потока : 611 Мбайт (86%)
Библиотека кодирования : XviD 1.2.1 (UTC 2008-12-04)

Аудио
Идентификатор : 1
Формат : MPEG Audio
Версия формата : Version 1
Профиль формата : Layer 3
Настройки формата : Joint stereo
Идентификатор кодека : 55
Идентификатор кодека/Подсказка : MP3
Продолжительность : 1 ч. 39 м.
Вид битрейта : Постоянный
Битрейт : 128 Кбит/сек
Каналы : 2 канала
Частота : 48,0 КГц
Частота кадров : 41,667 кадра/сек (1152 SPF)
Метод сжатия : С потерями
Размер потока : 91,2 Мбайт (13%)
Выравнивание : Соединение по промежуткам
Продолжительность промежутка : 42 мс. (1,00 видеокадр)
Время предзагрузки промежутка : 504 мс.
Библиотека кодирования : LAME3.99r
Настройки программы : -m j -V 4 -q 2 -lowpass 17 -b 128

piratbit.pw



Скачать Курьер через торрент http://pic1.kartinco.top/images/12/ilw94.jpg Скачать фильм Курьер через торрент бесплантно в хорошем качестве Описание: На первый взгляд, она - всего лишь курьер на черном мотоцикле, стремительно пронзающем ночной Лондон. Но даже в огромном ... 10 10 4
Info! Золотая раздача, скачанное не засчитывается.
Торрент: Зарегистрирован [2020-01-03 18:46] · скачан: 136 раз
Статус: √ проверено
Размер: 709 MB
Как cкачать? Как скачать Курьер через торрент | qTorrent

% Раздел Тема Автор DL S | L
Фильмы 2019-2020 [DVDrip, WEB-DLRip, HDrip] (DUB, MVO) [ 2.05 GB ] Курьер / The Courier [2019 BDRip-AVC] DUB - ExKinoRay Enigma2010 Скачать
15 | 0
Фильмы 2019-2020 [DVDrip, WEB-DLRip, HDrip] (DUB, MVO) [ 1.46 GB ] Курьер / The Courier [2019 BDRip] bober100 Скачать
2 | 0
Фильмы 2019-2020 [DVDrip, WEB-DLRip, HDrip] (DUB, MVO) [ 1.42 GB ] Курьер / The Courier [2019 BDRip] - Twi7ter Скачать
19 | 0
Фильмы 2019-2020 [DVDrip, WEB-DLRip, HDrip] (DUB, MVO) [ 1.41 GB ] Курьер / The Courier [2019 BDRip-AVC] bober100 Скачать
1 | 0
Фильмы [HD 720p, 1080p] (Хороший звук DUB, MVO) [ 4.41 GB ] Курьер / The Courier [2019 BDRip 720p] DUB bober100 Скачать
1 | 0
Фильмы [HD 720p, 1080p] (Хороший звук DUB, MVO) [ 7.8 GB ] Курьер / The Courier [2019 BDRip 1080p] DUB bober100 Скачать
4 | 0
Фильмы 2019-2020 [DVDrip, WEB-DLRip, HDrip] (DUB, MVO) [ 1.45 GB ] Курьер / The Courier [2019 WEB-DLRip-AVC] bober100 Скачать
3 | 0

28-11-2019 20:33  

Отключить всю рекламу на сайте

05-01-2020 17:56 Курьер Скачать торрент  

Блин, ну отстой. Много элементарных нестыковок. Скорее фантастика. Ну просто смотришь и глаз дергается.piratbit.pw



    Дорогой пользователь! Огромная просьба, поблагодарите релизера, оцените раздачу и оставьте свои комментарий, если Вы скачали Курьер через торрент бесплатно! Внесите свою лепту в развитие PiratBit!
    Комментировать посты могут только пользователи прошедшие не сложную регистрацию
    Показать сообщения:    

    Курьер через торрент
    Скачать бесплатно Курьер
    Курьер скачать торрент
    Курьер смотреть онлайн
    Cкачать фильм Курьер бесплатно
    Курьер скачать торрент в хорошем качестве
    Курьер смотреть онлайн бесплатно в хорошем качестве


    Вы не можете начинать темы
    Вы не можете отвечать на сообщения
    Вы не можете редактировать свои сообщения
    Вы не можете удалять свои сообщения
    Вы не можете голосовать в опросах
    Вы не можете прикреплять файлы к сообщениям
    Вы можете скачивать файлы