Marvel's Avengers Deluxe Edition (супер цена) 159р. Внимание количество ограничено!!!

2 сезон

iTunes

iTunes

1

iTunes

iTunes

iTunes

WEBRip

iTunes

30
pack

Новость дня

ВАЖНО

!!Акция!!

Alien_RageХит недели

RePack

Horizon Zero Dawn

ИГРА 18+

pack

RePack

jed

!!Акция!!

Alien_Rage

RePack

fifa19

RePack

Assassins Creed: Odyssey

RePack

NEED FOR SPEED™ PAYBACK

4 сезон

9 сезон

Бесстыжие 9 сезон

Все сериалы

все сериалы на PB.wtf

RePack

FAR CRY 5
  

Давай разведемся! (Анна Пармас) [2019, Комедия, WEB-DL 1080p] [iTunes] piratbit.pw

Давай разведемся! через торрент piratbit.pw

Размер: 3.18 GB | Добавлен: 1 мес. 6 д. назад | Торрент скачан:44 раза
Скачать  

03-01-2020 16:05 Давай разведемся! Скачать торрент  

Давай разведемся!
Год выпуска: 2019
Страна: Россия
Жанр: Комедия
Продолжительность: 01:32:19
Перевод: Не требуется | iTunes
Субтитры: отсутствуют

Режиссер: Анна Пармас

rating


В ролях: Анна Михалкова, Антон Филипенко, Светлана Камынина, Максим Лагашкин, Федор Лавров, Анна Рыцарева, Надежда Маркина, Сергей Рост, Дарья Румянцева, Майя Скородумова

Описание: Успешный врач Маша поглощена работой и не сразу замечает, что от нее уходит муж. Жизнь переворачивается вверх дном: на работе аврал, дети требуют постоянного внимания, а привыкшая побеждать Маша не готова уступить любимого мужа красотке фитнес-тренеру. Маша призывает на помощь полный боевой арсенал, включая потусторонние силы. Но новая жизнь открывает новые возможности...

Качество: WEB-DL 1080p
Формат: MKV

Видео: MPEG-4 AVC, 4541 Kb/s, 1920x804, 25 fps
Аудио: 48 kHz, AC3 Dolby Digital, 3/2 (L, C, R, l, r) + LFE ch, ~384 Kbps
скриншот  скриншот  скриншот  скриншот  скриншот  

General
Complete name : Davaib razvedemsya.2019.WEB-DL.1080p.mkv
Format : Matroska
Format version : Version 4
File size : 3.18 GiB
Duration : 1 h 32 min
Overall bit rate : 4 927 kb/s
Encoded date : UTC 2020-08-05 02:30:37
Writing application : mkvmerge v10.0.0 ('To Drown In You') 64bit
Writing library : libebml v1.3.4 + libmatroska v1.4.5
Cover : Yes
Attachments : cover.jpg

Video
ID : 1
Format : AVC
Format/Info : Advanced Video Codec
Format profile : High@L4
Format settings : CABAC / 5 Ref Frames
Format settings, CABAC : Yes
Format settings, RefFrames : 5 frames
Codec ID : V_MPEG4/ISO/AVC
Duration : 1 h 32 min
Bit rate : 4 541 kb/s
Width : 1 920 pixels
Height : 804 pixels
Display aspect ratio : 2.40:1
Frame rate mode : Constant
Frame rate : 25.000 FPS
Color space : YUV
Chroma subsampling : 4:2:0
Bit depth : 8 bits
Scan type : Progressive
Bits/(Pixel*Frame) : 0.118
Stream size : 2.93 GiB (92%)
Language : English
Default : Yes
Forced : No
Color range : Limited
Color primaries : BT.709
Transfer characteristics : BT.709
Matrix coefficients : BT.709

Audio
ID : 2
Format : AC-3
Format/Info : Audio Coding 3
Commercial name : Dolby Digital
Codec ID : A_AC3
Duration : 1 h 32 min
Bit rate mode : Constant
Bit rate : 384 kb/s
Channel(s) : 6 channels
Channel layout : L R C LFE Ls Rs
Sampling rate : 48.0 kHz
Frame rate : 31.250 FPS (1536 SPF)
Bit depth : 16 bits
Compression mode : Lossy
Delay relative to video : -40 ms
Stream size : 253 MiB (8%)
Title : [ORIGINAL] DD 5.1 @ 384 kbps (iTunes)
Language : Russian
Service kind : Complete Main
Default : Yes
Forced : No

Menu
00:00:00.000 : en:Глава 1
00:06:24.880 : en:Глава 2
00:12:25.440 : en:Глава 3
00:19:10.280 : en:Глава 4
00:25:42.240 : en:Глава 5
00:33:15.880 : en:Глава 6
00:43:32.440 : en:Глава 7
00:53:15.960 : en:Глава 8
00:59:32.360 : en:Глава 9
01:04:27.760 : en:Глава 10
01:12:36.840 : en:Глава 11
01:18:34.840 : en:Глава 12
01:25:10.640 : en:Глава 13

piratbit.pw



Скачать Давай разведемся! через торрент https://d.radikal.ru/d25/2008/3d/3eb7af01ae08.png Скачать фильм Давай разведемся! через торрент бесплантно в хорошем качестве Описание: Успешный врач Маша поглощена работой и не сразу замечает, что от нее уходит муж. Жизнь переворачивается вверх дном: на работе ... 9.4 10 24
Торрент: Зарегистрирован [2020-08-12 17:50] · скачан: 44 раз
Статус: √ проверено
Размер: 3.18 GB
Как cкачать? Как скачать Давай разведемся! через торрент | qTorrent

% Раздел Тема Автор DL S | L
Наши новые фильмы 2018-2019 [ 743 MB ] Давай разведемся! [2019 WEB-DLRip-AVC] [RUS] от wolf1245 & MediaBit Lithuania Скачать
6 | 0
Наши новые фильмы 2018-2019 [ 703 MB ] Давай разведемся! [2019 WEB-DLRip Русский ""] coc900 Скачать
2 | 0
Наши новые фильмы 2018-2019 [ 1.46 GB ] Давай разведемся! [2019 WEB-DLRip] bober100 Скачать
8 | 0
Наши новые фильмы 2018-2019 [ 1.46 GB ] Давай разведемся! [2019 WEB-DLRip-AVC] bober100 Скачать
3 | 0


Последний раз редактировалось: bober100 (2020-01-10 19:51), всего редактировалось 1 раз

28-11-2019 20:33  

Отключить всю рекламу на сайте

12-08-2020 18:28 Давай разведемся! Скачать торрент  

Можно раз посмотреть. В общем - мелодрама про семейную жизнь, измену мужа и т.д., но местами всё-таки смешно)piratbit.pw



13-08-2020 22:11 Давай разведемся! Скачать торрент  

Отстой тухлый , если честно . Фильм ни про что вообще . И не смешно ни разу .piratbit.pw



    Дорогой пользователь! Огромная просьба, поблагодарите релизера, оцените раздачу и оставьте свои комментарий, если Вы скачали Давай разведемся! через торрент бесплатно! Внесите свою лепту в развитие PiratBit!
    Комментировать посты могут только пользователи прошедшие не сложную регистрацию
    Показать сообщения:    

    Давай разведемся! через торрент
    Скачать бесплатно Давай разведемся!
    Давай разведемся! скачать торрент
    Давай разведемся! смотреть онлайн
    Cкачать фильм Давай разведемся! бесплатно
    Давай разведемся! скачать торрент в хорошем качестве
    Давай разведемся! смотреть онлайн бесплатно в хорошем качестве


    Вы не можете начинать темы
    Вы не можете отвечать на сообщения
    Вы не можете редактировать свои сообщения
    Вы не можете удалять свои сообщения
    Вы не можете голосовать в опросах
    Вы не можете прикреплять файлы к сообщениям
    Вы можете скачивать файлы