Ссылка на приватное зеркало нашего сайта всего за 1$. Внимание количество ограничено!!!

2 сезон

iTunes

iTunes

1

iTunes

iTunes

iTunes

WEBRip

iTunes

30
pack

Вам бонус

ВАЖНО

!!Акция!!

Alien_RageХит недели

RePack

Horizon Zero Dawn

ИГРА 18+

pack

RePack

jed

!!Акция!!

Alien_Rage

RePack

fifa19

RePack

Assassins Creed: Odyssey

RePack

NEED FOR SPEED™ PAYBACK

4 сезон

9 сезон

Бесстыжие 9 сезон

Все сериалы

все сериалы на PB.wtf

RePack

FAR CRY 5
  

Девятая (Николай Хомерики) [2019, триллер, приключения, детектив, ужасы, WEB-DL 720p] [iTunes] piratbit.pw

Девятая через торрент piratbit.pw

Раздают: 4 [ 0 KB/s ]
Размер: 2.84 GB | Добавлен: 8 мес. назад | Торрент скачан:303 раза
Скачать  

02-01-2020 16:26 Девятая Скачать торрент  

Девятая
Год выпуска: 2019
Страна: Россия
Жанр: триллер, приключения, детектив, ужасы
Продолжительность: 01:34:45
Перевод: Не требуется | iTunes
Субтитры: отсутствуют

Режиссер: Николай Хомерики

rating

В ролях: Евгений Цыганов, Дэйзи Хэд, Дмитрий Лысенков, Джонатан Солвей, Юрий Колокольников, Евгений Ткачук, Игорь Черневич, Иван Решетняк, Мария Скуратова, Анна Христич

Описание: Петербург конца XIX века охвачен массовым увлечением оккультными науками и эзотерикой. Британка-медиум Оливия Рид приезжает в столицу Российской империи с гастролями и собирает на своих публичных спиритических сеансах толпы людей. В это время в городе происходит серия ритуальных загадочных убийств. На улицах похищают девушек, их изувеченные тела находят в самых разных концах города. Расследованием занимаются молодой полицейский офицер Ростов и его помощник Ганин. С каждой новой жертвой дело становится все запутаннее. Подозрение приводит Ростова к Оливии, и он решает обратиться к ней в надежде, что ее подлинная или мнимая способность вызывать духов погибших может помочь выйти на след убийцы.

Качество: WEB-DL 720p
Формат: MKV

Видео: MPEG-4 AVC, 1280x536, 25.000 fps, 3987 Kbps
Аудио: Russian: 48.0 KHz, AC3, 6 ch, 384 kbps - iTunes
скриншот  скриншот  скриншот  скриншот  скриншот  

Общее
Уникальный идентификатор : 141076572457591047280770409218390592354 (0x6A225C0A784FC1609D71066CFD9B8B62)
Полное имя : C:\Devyataya.2019.WEB-DL.720p.mkv
Формат : Matroska
Версия формата : Version 4
Размер файла : 2,84 Гбайт
Продолжительность : 1 ч. 34 м.
Общий поток : 4292 Кбит/сек
Дата кодирования : UTC 2020-01-01 03:42:25
Программа кодирования : mkvmerge v38.0.0 ('The Silent Type') 64-bit
Библиотека кодирования : libebml v1.3.9 + libmatroska v1.5.2
Обложка : Yes
Attachments : cover4.png

Видео
Идентификатор : 1
Формат : AVC
Формат/Информация : Advanced Video Codec
Профиль формата : High@L4.1
Настройки формата : CABAC / 4 Ref Frames
Параметр CABAC формата : Да
Параметр RefFrames формата : 4 кадра
Идентификатор кодека : V_MPEG4/ISO/AVC
Продолжительность : 1 ч. 34 м.
Битрейт : 3987 Кбит/сек
Ширина : 1280 пикселей
Высота : 536 пикселей
Соотношение сторон : 2,40:1
Режим частоты кадров : Постоянный
Частота кадров : 25,000 кадров/сек
Цветовое пространство : YUV
Субдискретизация насыщенности : 4:2:0
Битовая глубина : 8 бит
Тип развёртки : Прогрессивная
Бит/(Пиксели*Кадры) : 0.232
Размер потока : 2,53 Гбайт (89%)
Библиотека кодирования : x264 core 146 r2538 121396c
Настройки программы : cabac=1 / ref=4 / deblock=1:0:0 / analyse=0x3:0x133 / me=hex / subme=6 / psy=1 / psy_rd=1.00:0.00 / mixed_ref=1 / me_range=16 / chroma_me=1 / trellis=2 / 8x8dct=1 / cqm=0 / deadzone=21,11 / fast_pskip=0 / chroma_qp_offset=-2 / threads=24 / lookahead_threads=4 / sliced_threads=0 / nr=0 / decimate=1 / interlaced=0 / bluray_compat=0 / constrained_intra=0 / bframes=6 / b_pyramid=2 / b_adapt=2 / b_bias=0 / direct=1 / weightb=1 / open_gop=0 / weightp=2 / keyint=240 / keyint_min=24 / scenecut=40 / intra_refresh=0 / rc=abr / mbtree=0 / bitrate=3987 / ratetol=1.0 / qcomp=0.60 / qpmin=0 / qpmax=69 / qpstep=4 / ip_ratio=1.40 / pb_ratio=1.30 / aq=1:1.00
Язык : English
Default : Да
Forced : Нет

Аудио
Идентификатор : 2
Формат : AC-3
Формат/Информация : Audio Coding 3
Коммерческое название : Dolby Digital
Идентификатор кодека : A_AC3
Продолжительность : 1 ч. 34 м.
Вид битрейта : Постоянный
Битрейт : 384 Кбит/сек
Каналы : 6 каналов
ChannelLayout : L R C LFE Ls Rs
Частота : 48,0 КГц
Частота кадров : 31,250 кадров/сек (1536 SPF)
Битовая глубина : 16 бит
Метод сжатия : С потерями
Размер потока : 260 Мбайт (9%)
Заголовок : [ORIGINAL] DD 5.1 @ 384 kbps (iTunes)
Язык : Russian
ServiceKind/String : Complete Main
Default : Да
Forced : Нет

Меню
00:00:00.000 : en:Глава 1
00:08:02.920 : en:Глава 2
00:16:12.120 : en:Глава 3
00:24:18.640 : en:Глава 4
00:32:36.680 : en:Глава 5
00:40:41.040 : en:Глава 6
00:48:47.960 : en:Глава 7
00:56:49.120 : en:Глава 8
01:05:09.040 : en:Глава 9
01:13:13.240 : en:Глава 10
01:21:17.240 : en:Глава 11

piratbit.pw



Скачать Девятая через торрент https://i3.imageban.ru/out/2020/01/01/88c0484f4a0a1a7ac31a3a7a8139bb2a.png Скачать фильм Девятая через торрент бесплантно в хорошем качестве Описание: Петербург конца XIX века охвачен массовым увлечением оккультными науками и эзотерикой. Британка-медиум Оливия Рид приезжает в ... 10 10 9
Info! Золотая раздача, скачанное не засчитывается.
Торрент: Зарегистрирован [2020-01-02 16:26] · скачан: 303 раз
Статус: √ проверено
Размер: 2.84 GB
Как cкачать? Как скачать Девятая через торрент | qTorrent

% Раздел Тема Автор DL S | L
Наши новые фильмы 2018-2019 [ 745 MB ] Девятая [2019 WEB-DLRip] bober100 Скачать
2 | 0
Наши фильмы (HD, WEB-DL 720p, 1080p) [ 3.23 GB ] Девятая [2019 WEB-DL 1080p] bober100 Скачать
3 | 0
Наши новые фильмы 2018-2019 [ 1.37 GB ] Девятая [2019 WEB-DLRip] bober100 Скачать
7 | 0
Фильмы с авторской озвучкой [ 1.49 GB ] Девятая конфигурация / The Ninth Configuration [1980 HDRip] [AVO] killermax2013 Скачать
1 | 0
T Фильмы (мультфильмы) cо спонсором показа (Новинки AVI/MKV) [ 4.21 GB ] Сила девяти Богов / The Legend of Muay Thai: 9 Satra [2018 мультфильм WEB-DL 720p] DUB [Line] bober100 Скачать
1 | 0
T Фильмы (мультфильмы) cо спонсором показа (Новинки AVI/MKV) [ 1.37 GB ] Сила девяти Богов / The Legend of Muay Thai: 9 Satra [2018 мультфильм WEB-DLRip] DUB [Line] bober100 Скачать
1 | 0
Приключения, Квесты, Логические [ 1.02 GB ] Сага о Девяти Мирах 3: Охота. Коллекционное издание / Saga of the Nine Worlds 3: The Hunt [Пиратка RUS] Легендариус Скачать
3 | 0

28-11-2019 20:33  

Отключить всю рекламу на сайте

    Дорогой пользователь! Огромная просьба, поблагодарите релизера, оцените раздачу и оставьте свои комментарий, если Вы скачали Девятая через торрент бесплатно! Внесите свою лепту в развитие PiratBit!
    Комментировать посты могут только пользователи прошедшие не сложную регистрацию
    Показать сообщения:    

    Девятая через торрент
    Скачать бесплатно Девятая
    Девятая скачать торрент
    Девятая смотреть онлайн
    Cкачать фильм Девятая бесплатно
    Девятая скачать торрент в хорошем качестве
    Девятая смотреть онлайн бесплатно в хорошем качестве


    Вы не можете начинать темы
    Вы не можете отвечать на сообщения
    Вы не можете редактировать свои сообщения
    Вы не можете удалять свои сообщения
    Вы не можете голосовать в опросах
    Вы не можете прикреплять файлы к сообщениям
    Вы можете скачивать файлы