Ссылка на приватное зеркало нашего сайта всего за 1$. Внимание количество ограничено!!!

2 сезон

iTunes

1 сезон

1

iTunes

iTunes

iTunes

1 сезон

RePack

30

ИГРА 18+

pack

ВАЖНО

!!Акция!!

Alien_RageХит недели

RePack

MK11
pack

Забери бонус

RePack

jed

!!Акция!!

Alien_Rage

RePack

fifa19

RePack

Assassins Creed: Odyssey

RePack

NEED FOR SPEED™ PAYBACK

4 сезон

9 сезон

Бесстыжие 9 сезон

Все сериалы

все сериалы на PB.wtf

RePack

FAR CRY 5
  

Полёт Феникса / The Flight of the Phoenix (Роберт Олдрич) [1965, драма, приключения, BDRip 1080p by msltel] MVO, DVO, AVO piratbit.pw

Полёт Феникса через торрент piratbit.pw

Размер: 20.97 GB | Добавлен: 9 мес. назад | Торрент скачан:0 раз
Скачать  

31-12-2019 06:55 Полёт Феникса Скачать торрент  

Название: Полёт Феникса
Оригинальное название: The Flight of the Phoenix
Год выпуска: 1965
Страна: США
Жанр: драма, приключения
Продолжительность: 02:22:00
Перевод: профессиональный многоголосый, профессиональный двухголосый, авторский

Режиссер: Роберт Олдрич
В ролях: Джеймс Стюарт, Ричард Аттенборо, Питер Финч, Харди Крюгер, Эрнест Боргнайн, Иэн Бэннен, Рональд Фрайзер, Кристиан Маркан, Дэн Дюрьи, Джордж Кеннеди, Габриэле Тинти, Алекс Монтойя, Питер Бравос, Уильям Олдрич, Барри Чейз, Стэнли Ральф Росс

О фильме: Небольшой грузовой самолёт с пассажирами на борту, попав в сильнейшую песчаную бурю, терпит крушение посреди пустыни. Двое из пассажиров погибают, один тяжело ранен. Как сложится судьба остальных, какие испытания их ожидают в безводной пустыне Сахара, и какое решение примут пилот Фрэнк Таунс и штурман Лью Моран, чтобы спастись из этой безвыходной ситуации, когда помощи ждать неоткуда? Понимая, что помощь не придёт, люди принимают решение самостоятельно построить новый самолёт из обломков разбившегося. Командир корабля Фрэнк Таунс и штурман Лью Моран ведут людей к спасению, несмотря на нарастающее напряжение в отношениях между членами команды... Экранизация одноимённого романа Эллестона Тревора.



Качество: BDRip 1080p
Формат: MKV
Видео: MPEG-4 AVC, 17.7 Mбит/с, 1920x1044, 23.976 кадр/с
Аудио 1: русский, AC3, 192 kbps, 2 ch, 48 kHz [закадровый многоголосый, Первый канал]
Аудио 2: русский, DTS, 1509 kbps, 2 ch, 48 kHz [закадровый двухголосый, SomeWax]
Аудио 3: русский, DTS, 1509 kbps, 2 ch, 48 kHz [авторский, Юрий Сербин]
Аудио 4: английский, AC3, 192 kbps, 2 ch, 48 kHz [оригинал]
Субтитры 1: русские
Субтитры 2: английские
Главы/чаптеры
Общее
Уникальный идентификатор : 213858760251971490550284055623447853918 (0xA0E3B2F33AA0DD5C84AA1A168627BB5E)
Полное имя : D:\Video\Полёт Феникса.1965.BDRip 1080p by msltel.mkv
Формат : Matroska
Версия формата : Version 4
Размер файла : 21,0 Гбайт
Продолжительность : 2 ч. 22 м.
Общий поток : 21,1 Мбит/сек
Название фильма : Rip by msltel
Дата кодирования : UTC 2019-12-31 05:40:34
Программа кодирования : mkvmerge v8.2.0 ('World of Adventure') 64bit
Библиотека кодирования : libebml v1.3.1 + libmatroska v1.4.2

Видео
Идентификатор : 1
Формат : AVC
Формат/Информация : Advanced Video Codec
Профиль формата : High@L4.1
Настройки формата : CABAC / 4 Ref Frames
Параметр CABAC формата : Да
Параметр RefFrames формата : 4 кадра
Идентификатор кодека : V_MPEG4/ISO/AVC
Продолжительность : 2 ч. 22 м.
Битрейт : 17,7 Мбит/сек
Ширина : 1920 пикселей
Высота : 1044 пикселя
Соотношение сторон : 1,85:1
Режим частоты кадров : Постоянный
Частота кадров : 23,976 (24000/1001) кадра/сек
Цветовое пространство : YUV
Субдискретизация насыщенности : 4:2:0
Битовая глубина : 8 бит
Тип развёртки : Прогрессивная
Бит/(Пиксели*Кадры) : 0.369
Размер потока : 17,6 Гбайт (84%)
Библиотека кодирования : x264 core 157 r2935 545de2f
Настройки программы : cabac=1 / ref=4 / deblock=1:-2:-2 / analyse=0x3:0x113 / me=umh / subme=11 / psy=1 / psy_rd=1.00:0.15 / mixed_ref=1 / me_range=32 / chroma_me=1 / trellis=2 / 8x8dct=1 / cqm=0 / deadzone=21,11 / fast_pskip=0 / chroma_qp_offset=-3 / threads=6 / lookahead_threads=1 / sliced_threads=0 / nr=0 / decimate=1 / interlaced=0 / bluray_compat=0 / constrained_intra=0 / bframes=13 / b_pyramid=2 / b_adapt=2 / b_bias=0 / direct=1 / weightb=1 / open_gop=0 / weightp=2 / keyint=230 / keyint_min=23 / scenecut=40 / intra_refresh=0 / rc_lookahead=40 / rc=crf / mbtree=0 / crf=20.5 / qcomp=0.60 / qpmin=0 / qpmax=69 / qpstep=4 / vbv_maxrate=50000 / vbv_bufsize=62500 / crf_max=0.0 / nal_hrd=none / filler=0 / ip_ratio=1.40 / pb_ratio=1.30 / aq=1:1.00
Язык : English
Default : Да
Forced : Нет

Аудио #1
Идентификатор : 2
Формат : AC-3
Формат/Информация : Audio Coding 3
Коммерческое название : Dolby Digital
Идентификатор кодека : A_AC3
Продолжительность : 2 ч. 21 м.
Вид битрейта : Постоянный
Битрейт : 192 Кбит/сек
Каналы : 2 канала
ChannelLayout : L R
Частота : 48,0 КГц
Частота кадров : 31,250 кадров/сек (1536 SPF)
Метод сжатия : С потерями
Размер потока : 195 Мбайт (1%)
Заголовок : MVO Первый канал
Язык : Russian
ServiceKind/String : Complete Main
Default : Да
Forced : Нет

Аудио #2
Идентификатор : 3
Формат : DTS
Формат/Информация : Digital Theater Systems
Идентификатор кодека : A_DTS
Продолжительность : 2 ч. 21 м.
Вид битрейта : Постоянный
Битрейт : 1509 Кбит/сек
Каналы : 2 канала
ChannelLayout : L R
Частота : 48,0 КГц
Частота кадров : 93,750 кадра/сек (512 SPF)
Битовая глубина : 16 бит
Метод сжатия : С потерями
Размер потока : 1,50 Гбайт (7%)
Заголовок : DVO SomeWax
Язык : Russian
Default : Нет
Forced : Нет

Аудио #3
Идентификатор : 4
Формат : DTS
Формат/Информация : Digital Theater Systems
Идентификатор кодека : A_DTS
Продолжительность : 2 ч. 21 м.
Вид битрейта : Постоянный
Битрейт : 1509 Кбит/сек
Каналы : 2 канала
ChannelLayout : L R
Частота : 48,0 КГц
Частота кадров : 93,750 кадра/сек (512 SPF)
Битовая глубина : 16 бит
Метод сжатия : С потерями
Размер потока : 1,50 Гбайт (7%)
Заголовок : Юрий Сербин
Язык : Russian
Default : Нет
Forced : Нет

Аудио #4
Идентификатор : 5
Формат : AC-3
Формат/Информация : Audio Coding 3
Коммерческое название : Dolby Digital
Идентификатор кодека : A_AC3
Продолжительность : 2 ч. 22 м.
Вид битрейта : Постоянный
Битрейт : 192 Кбит/сек
Каналы : 2 канала
ChannelLayout : L R
Частота : 48,0 КГц
Частота кадров : 31,250 кадров/сек (1536 SPF)
Метод сжатия : С потерями
Размер потока : 195 Мбайт (1%)
Заголовок : original
Язык : English
ServiceKind/String : Complete Main
Default : Нет
Forced : Нет

Текст #1
Идентификатор : 6
Формат : UTF-8
Идентификатор кодека : S_TEXT/UTF8
Идентификатор кодека/Информация : UTF-8 Plain Text
Продолжительность : 2 ч. 20 м.
Битрейт : 62 бит/сек
ElementCount : 1198
Размер потока : 64,1 Кбайт (0%)
Заголовок : русские
Язык : Russian
Default : Нет
Forced : Нет

Текст #2
Идентификатор : 7
Формат : UTF-8
Идентификатор кодека : S_TEXT/UTF8
Идентификатор кодека/Информация : UTF-8 Plain Text
Продолжительность : 2 ч. 20 м.
Битрейт : 52 бит/сек
ElementCount : 1434
Размер потока : 54,2 Кбайт (0%)
Заголовок : английские
Язык : English
Default : Нет
Forced : Нет

Меню
00:00:00.000 : :Chapter 1
00:11:48.414 : :Chapter 2
00:24:24.546 : :Chapter 3
00:37:57.650 : :Chapter 4
00:47:49.617 : :Chapter 5
01:03:29.431 : :Chapter 6
01:14:08.444 : :Chapter 7
01:32:43.180 : :Chapter 8
01:41:15.152 : :Chapter 9
01:54:24.355 : :Chapter 10
02:05:31.939 : :Chapter 11
piratbit.pw



Скачать Полёт Феникса через торрент https://b.radikal.ru/b22/1912/1a/77455be211b8.jpg Скачать фильм Полёт Феникса через торрент бесплантно в хорошем качестве О фильме: Небольшой грузовой самолёт с пассажирами на борту, попав в сильнейшую песчаную бурю, терпит крушение посреди пустыни. Двое из ... 5 10 1
Info! Золотая раздача, скачанное не засчитывается.
Торрент: Зарегистрирован [2019-12-31 06:55] · скачан: 0 раз
Статус: √ проверено
Размер: 20.97 GB
Как cкачать? Как скачать Полёт Феникса через торрент | qTorrent

% Раздел Тема Автор DL S | L
Классика зарубежного кино [ 6.63 GB ] Полёт Феникса / The Flight of the Phoenix [1965 BDRip 720p by msltel] MVO DVO AVO msltel Скачать
1 | 0
Классика зарубежного кино [ 3.64 GB ] Полёт Феникса / The Flight of the Phoenix [1965 BDRip by msltel] MVO DVO AVO msltel Скачать
1 | 0

28-11-2019 20:33  

Отключить всю рекламу на сайте

    Дорогой пользователь! Огромная просьба, поблагодарите релизера, оцените раздачу и оставьте свои комментарий, если Вы скачали Полёт Феникса через торрент бесплатно! Внесите свою лепту в развитие PiratBit!
    Комментировать посты могут только пользователи прошедшие не сложную регистрацию
    Показать сообщения:    

    Полёт Феникса через торрент
    Скачать бесплатно Полёт Феникса
    Полёт Феникса скачать торрент
    Полёт Феникса смотреть онлайн
    Cкачать фильм Полёт Феникса бесплатно
    Полёт Феникса скачать торрент в хорошем качестве
    Полёт Феникса смотреть онлайн бесплатно в хорошем качестве


    Вы не можете начинать темы
    Вы не можете отвечать на сообщения
    Вы не можете редактировать свои сообщения
    Вы не можете удалять свои сообщения
    Вы не можете голосовать в опросах
    Вы не можете прикреплять файлы к сообщениям
    Вы можете скачивать файлы