Ссылка на приватное зеркало нашего сайта всего за 1$. Внимание количество ограничено!!!

2 сезон

iTunes

1 сезон

1

2 сезон

2 сезон

iTunes

1 сезон

RePack

30

Новинка

ВАЖНО

ИГРА 18+

pack

RePack

MK11
pack

Забери бонус

RePack

jed

!!Акция!!

Alien_Rage

RePack

fifa19

RePack

Assassins Creed: Odyssey

RePack

NEED FOR SPEED™ PAYBACK

4 сезон

9 сезон

Бесстыжие 9 сезон

Все сериалы

все сериалы на PB.wtf

RePack

FAR CRY 5
  

Zомбилэнд: Контрольный выстрел / Zombieland: Double Tap (Рубен Фляйшер) [2019 г., ужасы, комедия, боевик, HDRip, Дубляж "iTunes"] piratbit.pw

Zомбилэнд: Контрольный выстрел через торрент piratbit.pw

Размер: 708 MB | Добавлен: 10 мес. назад | Торрент скачан:105 раз
Скачать  

29-12-2019 18:51 Zомбилэнд: Контрольный выстрел Скачать торрент  

Zомбилэнд: Контрольный выстрел / Zombieland: Double Tap
Год выпуска: 2019
Страна: США, Канада / 2.0 Entertainment, Columbia Pictures, Pariah
Жанр: ужасы, комедия, боевик
Продолжительность: 01:39:01
Перевод: Дубляж (iTunes)
Субтитры: Русские форсированные - вшитые

Режиссер: Рубен Фляйшер

rating

В ролях: Джесси Айзенберг, Вуди Харрельсон, Эмма Стоун, Эбигейл Бреслин, Зои Дойч, Эван Джогиа, Розарио Доусон, Люк Уилсон, Томас Миддлдитч, Виктория Холл

Описание: Беспощадная и бесстрашная четверка охотников на зомби продолжает свое путешествие в глубь страны. На этот раз им предстоит сразиться не только с новыми видами живых мертвецов, но и познакомиться с другими выжившими. Кроме того, в собственных рядах наших героев намечается серьезный разлад.

Качество: HDRip
Формат: AVI
Видео кодек: DivX
Аудио кодек: MP3
Видео: 640x272 (2.35:1), 23.976 fps, DivX Codec 4.x ~861 kbps avg, 0.21 bit/pixel
Аудио: 48 kHz, MPEG Layer 3, 2 ch, ~128.00 kbps avg
скриншот   скриншот   скриншот   скриншот  

Общее
Полное имя : F:\ФИЛЬМЫ\Zомбилэнд Контрольный выстрел.2019.D.HDRip.avi
Формат : AVI
Формат/Информация : Audio Video Interleave
Размер файла : 708 Мбайт
Продолжительность : 1 ч. 39 м.
Общий поток : 999 Кбит/сек
Программа кодирования : VirtualDubMod 1.5.10.3 | www.virtualdub-fr.org || (build 2550/release)
Библиотека кодирования : VirtualDubMod build 2550/release

Видео
Идентификатор : 0
Формат : MPEG-4 Visual
Профиль формата : Advanced Simple@L5
Настройки формата : BVOP3 / GMC3 / QPel
Параметр BVOP формата : 3
Параметр QPel формата : Да
Параметр GMC формата : 3 точки перехода
Параметр матрицы формата : Default (MPEG)
Идентификатор кодека : DIVX
Идентификатор кодека/Информация : Project Mayo
Идентификатор кодека/Подсказка : DivX 4
Продолжительность : 1 ч. 39 м.
Битрейт : 862 Кбит/сек
Ширина : 640 пикселей
Высота : 272 пикселя
Соотношение сторон : 2,35:1
Частота кадров : 23,976 (24000/1001) кадра/сек
Цветовое пространство : YUV
Субдискретизация насыщенности : 4:2:0
Битовая глубина : 8 бит
Тип развёртки : Прогрессивная
Метод сжатия : С потерями
Бит/(Пиксели*Кадры) : 0.206
Размер потока : 610 Мбайт (86%)
Библиотека кодирования : XviD 1.2.1 (UTC 2008-12-04)

Аудио
Идентификатор : 1
Формат : MPEG Audio
Версия формата : Version 1
Профиль формата : Layer 3
Настройки формата : Joint stereo / MS Stereo
Идентификатор кодека : 55
Идентификатор кодека/Подсказка : MP3
Продолжительность : 1 ч. 39 м.
Вид битрейта : Постоянный
Битрейт : 128 Кбит/сек
Каналы : 2 канала
Частота : 48,0 КГц
Частота кадров : 41,667 кадра/сек (1152 SPF)
Метод сжатия : С потерями
Размер потока : 90,7 Мбайт (13%)
Выравнивание : Соединение по промежуткам
Продолжительность промежутка : 42 мс. (1,00 видеокадр)
Время предзагрузки промежутка : 504 мс.
Библиотека кодирования : LAME3.99r
Настройки программы : -m j -V 4 -q 2 -lowpass 17 -b 128

piratbit.pw



Скачать Zомбилэнд: Контрольный выстрел через торрент http://pic1.kartinco.top/images/12/pzd6c.jpg Скачать фильм Zомбилэнд: Контрольный выстрел через торрент бесплантно в хорошем качестве Описание: Беспощадная и бесстрашная четверка охотников на зомби продолжает свое путешествие в глубь страны. На этот раз им предстоит ... 8.5 10 6
Торрент: Зарегистрирован [2019-12-29 18:51] · скачан: 105 раз
Статус: √ проверено
Размер: 708 MB
Как cкачать? Как скачать Zомбилэнд: Контрольный выстрел через торрент | qTorrent

% Раздел Тема Автор DL S | L
Ultra HD (UHD: 2K, 4K, 8K) — видео сверхвысокой чёткости [ 53.3 GB ] Zомбилэнд: Контрольный выстрел / Zombieland: Double Tap [2019 UHD Blu-ray 2160p] DUB [] bober100 Скачать
1 | 0
T Фильмы без перевода [ 5.2 GB ] Zомбилэнд: Контрольный выстрел / Zombieland: Double Tap [2019 WEBRip 1080p] SUB bober100 Скачать
1 | 0
Фильмы [HD 720p, 1080p] (Хороший звук DUB, MVO) [ 10.11 GB ] Zомбилэнд: Контрольный выстрел / Zombieland: Double Tap [2019 BDRip 1080p] DUB [] bober100 Скачать
3 | 0
Ultra HD (UHD: 2K, 4K, 8K) — видео сверхвысокой чёткости [ 42.03 GB ] Zомбилэнд: Контрольный выстрел / Zombieland: Double Tap [2019 UHD BDRemux 2160p] DUB [] bober100 Скачать
1 | 0
Фильмы 2019-2020 [DVDrip, WEB-DLRip, HDrip] (DUB, MVO) [ 1.46 GB ] Zомбилэнд: Контрольный выстрел / Zombieland: Double Tap [2019 BDRip] - [] Twi7ter Скачать
11 | 0
Фильмы 2019-2020 [DVDrip, WEB-DLRip, HDrip] (DUB, MVO) [ 1.46 GB ] Zомбилэнд: Контрольный выстрел / Zombieland: Double Tap [2019 BDRip] DUB [ BD 4K EUR] bober100 Скачать
2 | 0
Фильмы (Blu-ray, BD-Remux, HDDVD) [ 23.09 GB ] Zомбилэнд: Контрольный выстрел / Zombieland: Double Tap [2019 BD Remux 1080p] DUB [] bober100 Скачать
1 | 0

28-11-2019 20:33  

Отключить всю рекламу на сайте

    Дорогой пользователь! Огромная просьба, поблагодарите релизера, оцените раздачу и оставьте свои комментарий, если Вы скачали Zомбилэнд: Контрольный выстрел через торрент бесплатно! Внесите свою лепту в развитие PiratBit!
    Комментировать посты могут только пользователи прошедшие не сложную регистрацию
    Показать сообщения:    

    Zомбилэнд: Контрольный выстрел через торрент
    Скачать бесплатно Zомбилэнд: Контрольный выстрел
    Zомбилэнд: Контрольный выстрел скачать торрент
    Zомбилэнд: Контрольный выстрел смотреть онлайн
    Cкачать фильм Zомбилэнд: Контрольный выстрел бесплатно
    Zомбилэнд: Контрольный выстрел скачать торрент в хорошем качестве
    Zомбилэнд: Контрольный выстрел смотреть онлайн бесплатно в хорошем качестве


    Вы не можете начинать темы
    Вы не можете отвечать на сообщения
    Вы не можете редактировать свои сообщения
    Вы не можете удалять свои сообщения
    Вы не можете голосовать в опросах
    Вы не можете прикреплять файлы к сообщениям
    Вы можете скачивать файлы