Ссылка на приватное зеркало нашего сайта всего за 1$. Внимание количество ограничено!!!

2 сезон

iTunes

1 сезон

1

iTunes

iTunes

iTunes

1 сезон

RePack

30

ИГРА 18+

pack

ВАЖНО

!!Акция!!

Alien_RageХит недели

RePack

MK11
pack

Забери бонус

RePack

jed

!!Акция!!

Alien_Rage

RePack

fifa19

RePack

Assassins Creed: Odyssey

RePack

NEED FOR SPEED™ PAYBACK

4 сезон

9 сезон

Бесстыжие 9 сезон

Все сериалы

все сериалы на PB.wtf

RePack

FAR CRY 5
  

Темнота солнца / The Mercenaries (Джек Кардифф) [1968, боевик, триллер, драма, приключения, военный, BDRip (AVC) by msltel] AVO piratbit.pw

Темнота солнца через торрент piratbit.pw

Размер: 1.93 GB | Добавлен: 10 мес. назад | Торрент скачан:1 раз
Скачать  

24-12-2019 06:50 Темнота солнца Скачать торрент  

Название: Темнота солнца
Оригинальное название: The Mercenaries
Год выпуска: 1968
Страна: Великобритания, США
Жанр: боевик, триллер, драма, приключения, военный
Продолжительность: 01:40:33
Перевод: авторский

Режиссер: Джек Кардифф
В ролях: Род Тейлор, Иветт Мимьё, Петер Карстен, Джим Браун, Кеннет Мор, Андре Морелл, Оливье Депа, Гай Деги, Блоук Модисейн, Кэлвин Локхарт

О фильме: Группа наёмников, возглавляемая капитаном Карри, движется по охваченному гражданской войной Конго. Им предстоит сразиться с вооружёнными до зубов повстанцами, спасти заложников и вернуть необработанные алмазы стоимостью в 25 миллионов долларов. Фильм основан на романе Уилбура Смита "The Dark of the Sun" (1965).



Качество: BDRip (AVC)
Формат: MKV
Видео: MPEG-4 AVC, 2355 Кбит/с, 1024х436, 23.976 кадр/с
Аудио 1: русский, AC3, 192 kbps, 2 ch, 48 kHz [авторский, Василий Горчаков]
Аудио 2: английский, AC3, 192 kbps, 2 ch, 48 kHz [оригинал]
Субтитры 1: русские
Субтитры 2: английские
Главы/чаптеры
Общее
Уникальный идентификатор : 171472892311153443789321331137455099989 (0x81007A50CA8341478A5CC06CC65C9055)
Полное имя : D:\Video\Темнота солнца.1968.BDRip (AVC) by msltel.mkv
Формат : Matroska
Версия формата : Version 4
Размер файла : 1,93 Гбайт
Продолжительность : 1 ч. 40 м.
Общий поток : 2741 Кбит/сек
Название фильма : Rip by msltel
Дата кодирования : UTC 2019-12-23 16:05:22
Программа кодирования : mkvmerge v8.2.0 ('World of Adventure') 64bit
Библиотека кодирования : libebml v1.3.1 + libmatroska v1.4.2

Видео
Идентификатор : 1
Формат : AVC
Формат/Информация : Advanced Video Codec
Профиль формата : High@L4.1
Настройки формата : CABAC / 9 Ref Frames
Параметр CABAC формата : Да
Параметр RefFrames формата : 9 кадров
Идентификатор кодека : V_MPEG4/ISO/AVC
Продолжительность : 1 ч. 40 м.
Битрейт : 2355 Кбит/сек
Ширина : 1024 пикселя
Высота : 436 пикселей
Соотношение сторон : 2,35:1
Режим частоты кадров : Постоянный
Частота кадров : 23,976 (24000/1001) кадра/сек
Цветовое пространство : YUV
Субдискретизация насыщенности : 4:2:0
Битовая глубина : 8 бит
Тип развёртки : Прогрессивная
Бит/(Пиксели*Кадры) : 0.220
Размер потока : 1,65 Гбайт (86%)
Библиотека кодирования : x264 core 157 r2935 545de2f
Настройки программы : cabac=1 / ref=9 / deblock=1:-2:-2 / analyse=0x3:0x113 / me=umh / subme=11 / psy=1 / psy_rd=1.00:0.15 / mixed_ref=1 / me_range=32 / chroma_me=1 / trellis=2 / 8x8dct=1 / cqm=0 / deadzone=21,11 / fast_pskip=0 / chroma_qp_offset=-3 / threads=6 / lookahead_threads=1 / sliced_threads=0 / nr=0 / decimate=1 / interlaced=0 / bluray_compat=0 / constrained_intra=0 / bframes=8 / b_pyramid=2 / b_adapt=2 / b_bias=0 / direct=1 / weightb=1 / open_gop=0 / weightp=2 / keyint=230 / keyint_min=23 / scenecut=40 / intra_refresh=0 / rc_lookahead=40 / rc=crf / mbtree=0 / crf=19.5 / qcomp=0.60 / qpmin=0 / qpmax=69 / qpstep=4 / vbv_maxrate=50000 / vbv_bufsize=62500 / crf_max=0.0 / nal_hrd=none / filler=0 / ip_ratio=1.40 / pb_ratio=1.30 / aq=1:1.00
Язык : English
Default : Да
Forced : Нет

Аудио #1
Идентификатор : 2
Формат : AC-3
Формат/Информация : Audio Coding 3
Коммерческое название : Dolby Digital
Идентификатор кодека : A_AC3
Продолжительность : 1 ч. 40 м.
Вид битрейта : Постоянный
Битрейт : 192 Кбит/сек
Каналы : 2 канала
ChannelLayout : L R
Частота : 48,0 КГц
Частота кадров : 31,250 кадров/сек (1536 SPF)
Метод сжатия : С потерями
Размер потока : 138 Мбайт (7%)
Заголовок : Василий Горчаков
Язык : Russian
ServiceKind/String : Complete Main
Default : Да
Forced : Нет

Аудио #2
Идентификатор : 3
Формат : AC-3
Формат/Информация : Audio Coding 3
Коммерческое название : Dolby Digital
Идентификатор кодека : A_AC3
Продолжительность : 1 ч. 40 м.
Вид битрейта : Постоянный
Битрейт : 192 Кбит/сек
Каналы : 2 канала
ChannelLayout : L R
Частота : 48,0 КГц
Частота кадров : 31,250 кадров/сек (1536 SPF)
Метод сжатия : С потерями
Размер потока : 138 Мбайт (7%)
Заголовок : original
Язык : English
ServiceKind/String : Complete Main
Default : Нет
Forced : Нет

Текст #1
Идентификатор : 4
Формат : UTF-8
Идентификатор кодека : S_TEXT/UTF8
Идентификатор кодека/Информация : UTF-8 Plain Text
Продолжительность : 1 ч. 23 м.
Битрейт : 79 бит/сек
ElementCount : 892
Размер потока : 48,7 Кбайт (0%)
Заголовок : русские
Язык : Russian
Default : Нет
Forced : Нет

Текст #2
Идентификатор : 5
Формат : UTF-8
Идентификатор кодека : S_TEXT/UTF8
Идентификатор кодека/Информация : UTF-8 Plain Text
Продолжительность : 1 ч. 39 м.
Битрейт : 43 бит/сек
ElementCount : 997
Размер потока : 32,1 Кбайт (0%)
Заголовок : английские
Язык : English
Default : Нет
Forced : Нет

Меню
00:00:00.000 : :Chapter 1
00:02:11.004 : :Chapter 2
00:05:40.298 : :Chapter 3
00:09:01.374 : :Chapter 4
00:13:23.802 : :Chapter 5
00:15:33.389 : :Chapter 6
00:19:32.253 : :Chapter 7
00:21:39.839 : :Chapter 8
00:26:13.195 : :Chapter 9
00:33:03.189 : :Chapter 10
00:36:21.469 : :Chapter 11
00:40:37.601 : :Chapter 12
00:44:52.690 : :Chapter 13
00:45:55.543 : :Chapter 14
00:50:39.952 : :Chapter 15
00:56:18.333 : :Chapter 16
00:59:37.699 : :Chapter 17
01:05:55.826 : :Chapter 18
01:08:38.905 : :Chapter 19
01:11:16.771 : :Chapter 20
01:14:59.994 : :Chapter 21
01:16:55.902 : :Chapter 22
01:20:36.539 : :Chapter 23
01:23:56.948 : :Chapter 24
01:31:47.502 : :Chapter 25
01:34:07.765 : :Chapter 26
01:37:50.573 : :Chapter 27
01:39:52.235 : :Chapter 28
01:40:32.024 : :Chapter 29
piratbit.pw



Скачать Темнота солнца через торрент https://a.radikal.ru/a39/1912/93/5c88bd7ef599.jpg Скачать фильм Темнота солнца через торрент бесплантно в хорошем качестве О фильме: Группа наёмников, возглавляемая капитаном Карри, движется по охваченному гражданской войной Конго. Им предстоит сразиться с ... 10 10 1
Info! Золотая раздача, скачанное не засчитывается.
Торрент: Зарегистрирован [2019-12-24 06:50] · скачан: 1 раз
Статус: √ проверено
Размер: 1.93 GB
Как cкачать? Как скачать Темнота солнца через торрент | qTorrent

% Раздел Тема Автор DL S | L
Классика зарубежного кино [ 10.63 GB ] Темнота солнца / The Mercenaries [1968 военный BDRip 1080p by msltel] AVO msltel Скачать
1 | 0
Классика зарубежного кино [ 3.61 GB ] Темнота солнца / The Mercenaries [1968 военный BDRip 720p by msltel] AVO msltel Скачать
1 | 0

28-11-2019 20:33  

Отключить всю рекламу на сайте

    Дорогой пользователь! Огромная просьба, поблагодарите релизера, оцените раздачу и оставьте свои комментарий, если Вы скачали Темнота солнца через торрент бесплатно! Внесите свою лепту в развитие PiratBit!
    Комментировать посты могут только пользователи прошедшие не сложную регистрацию
    Показать сообщения:    

    Темнота солнца через торрент
    Скачать бесплатно Темнота солнца
    Темнота солнца скачать торрент
    Темнота солнца смотреть онлайн
    Cкачать фильм Темнота солнца бесплатно
    Темнота солнца скачать торрент в хорошем качестве
    Темнота солнца смотреть онлайн бесплатно в хорошем качестве


    Вы не можете начинать темы
    Вы не можете отвечать на сообщения
    Вы не можете редактировать свои сообщения
    Вы не можете удалять свои сообщения
    Вы не можете голосовать в опросах
    Вы не можете прикреплять файлы к сообщениям
    Вы можете скачивать файлы