Marvel's Avengers Deluxe Edition (супер цена) 159р. Внимание количество ограничено!!!

2 сезон

iTunes

iTunes

1

iTunes

iTunes

iTunes

WEBRip

iTunes

30
pack

Новость дня

ВАЖНО

!!Акция!!

Alien_RageХит недели

RePack

Horizon Zero Dawn

ИГРА 18+

pack

RePack

jed

!!Акция!!

Alien_Rage

RePack

fifa19

RePack

Assassins Creed: Odyssey

RePack

NEED FOR SPEED™ PAYBACK

4 сезон

9 сезон

Бесстыжие 9 сезон

Все сериалы

все сериалы на PB.wtf

RePack

FAR CRY 5
  

Двенадцать месяцев (Анатолий Граник) [1973 г., Сказка, фэнтези, семейный, DVDRip] piratbit.pw

Двенадцать месяцев через торрент piratbit.pw

Размер: 1.45 GB | Добавлен: 8 мес. назад | Торрент скачан:25 раз
Скачать  

22-12-2019 06:44 Двенадцать месяцев Скачать торрент  

Двенадцать месяцевГод выпуска: 1973
Страна: СССР
Жанр: Сказка, фэнтези, семейный
Продолжительность: 01:03:15 + 01:15:32
Перевод: Не требуется Русский
Субтитры: Отсутствуют

Режиссер: Анатолий Граник

Премьера в мире: 1 января 1973

rating

В ролях: Лиана Жвания, Николай Волков, Ольга Викландт, Марина Мальцева, Наталья Попова, Татьяна Пельтцер, Константин Адашевский, Александр Соколов, Алексей Кожевников, Лев Лемке, Георгий Тейх, Леонид Куравлёв, Аркадий Трусов, Борис Рыжухин, Александр Афанасьев, Андрей Босов

Описание: Сказка по пьесе С. Маршака. Однажды холодным зимним вечером — вечером, когда добрая хозяйка собаку из дома не выгонит, злая мачеха отправила свою падчерицу в лес, чтобы та набрала корзину подснежников. Бедной девочке ничего не оставалось делать, как отправиться исполнять прихоть мачехи…

Качество: DVDRip
Формат: AVI
Видео кодек: XviD
Аудио кодек: MP3
Видео: 640x480 (1.33:1), 25 fps, XviD build 73 ~1505 kbps avg, 0.20 bit/pixel
Видео#2: 640x480 (1.33:1), 25 fps, XviD build 73 ~1240 kbps avg, 0.16 bit/pixel
Аудио: 48 kHz, MP3, 2 ch, ~128.00 kbps avg
Релиз от: &
General
Complete name : D:\1_Двенадцать месяцев DVDRip by ExKinoRay & Shkiper.avi
Format : AVI
Format/Info : Audio Video Interleave
File size : 743 MiB
Duration : 1 h 3 min
Overall bit rate : 1 643 kb/s
Writing application : VirtualDubMod 1.5.10.3 | www.virtualdub-fr.org || (build 2550/release)
Writing library : VirtualDubMod build 2550/release

Video
ID : 0
Format : MPEG-4 Visual
Format profile : Advanced Simple@L5
Format settings : BVOP1 / Custom Matrix
Format settings, BVOP : 1
Format settings, QPel : No
Format settings, GMC : No warppoints
Format settings, Matrix : Custom
Codec ID : XVID
Codec ID/Hint : XviD
Duration : 1 h 3 min
Bit rate : 1 505 kb/s
Width : 640 pixels
Height : 480 pixels
Display aspect ratio : 4:3
Frame rate : 25.000 FPS
Color space : YUV
Chroma subsampling : 4:2:0
Bit depth : 8 bits
Scan type : Progressive
Compression mode : Lossy
Bits/(Pixel*Frame) : 0.196
Stream size : 681 MiB (92%)
Writing library : XviD 73

Audio
ID : 1
Format : MPEG Audio
Format version : Version 1
Format profile : Layer 3
Codec ID : 55
Codec ID/Hint : MP3
Duration : 1 h 3 min
Bit rate mode : Constant
Bit rate : 128 kb/s
Channel(s) : 2 channels
Sampling rate : 48.0 kHz
Frame rate : 41.667 FPS (1152 SPF)
Compression mode : Lossy
Stream size : 57.9 MiB (8%)
Alignment : Aligned on interleaves
Interleave, duration : 40 ms (1.00 video frame)
Interleave, preload duratio : 504 ms
Writing library : LAME3.99r
Encoding settings : -m s -V 4 -q 2 -lowpass 17 -b 128
-------
General
Complete name : D:\2_Двенадцать месяцев DVDRip by ExKinoRay & Shkiper.avi
Format : AVI
Format/Info : Audio Video Interleave
File size : 744 MiB
Duration : 1 h 15 min
Overall bit rate : 1 377 kb/s
Writing application : VirtualDubMod 1.5.10.3 | www.virtualdub-fr.org || (build 2550/release)
Writing library : VirtualDubMod build 2550/release

Video
ID : 0
Format : MPEG-4 Visual
Format profile : Advanced Simple@L5
Format settings : BVOP1 / Custom Matrix
Format settings, BVOP : 1
Format settings, QPel : No
Format settings, GMC : No warppoints
Format settings, Matrix : Custom
Codec ID : XVID
Codec ID/Hint : XviD
Duration : 1 h 15 min
Bit rate : 1 240 kb/s
Width : 640 pixels
Height : 480 pixels
Display aspect ratio : 4:3
Frame rate : 25.000 FPS
Color space : YUV
Chroma subsampling : 4:2:0
Bit depth : 8 bits
Scan type : Progressive
Compression mode : Lossy
Bits/(Pixel*Frame) : 0.161
Stream size : 670 MiB (90%)
Writing library : XviD 73

Audio
ID : 1
Format : MPEG Audio
Format version : Version 1
Format profile : Layer 3
Codec ID : 55
Codec ID/Hint : MP3
Duration : 1 h 15 min
Bit rate mode : Constant
Bit rate : 128 kb/s
Channel(s) : 2 channels
Sampling rate : 48.0 kHz
Frame rate : 41.667 FPS (1152 SPF)
Compression mode : Lossy
Stream size : 69.2 MiB (9%)
Alignment : Aligned on interleaves
Interleave, duration : 40 ms (1.00 video frame)
Interleave, preload duratio : 504 ms
Writing library : LAME3.99r
Encoding settings : -m s -V 4 -q 2 -lowpass 17 -b 128

piratbit.pw



Скачать Двенадцать месяцев через торрент https://img16.lostpic.net/2019/12/22/686d5fb45b096914f6a365758c2f1044.jpg Скачать фильм Двенадцать месяцев через торрент бесплантно в хорошем качестве Описание: Сказка по пьесе С. Маршака. Однажды холодным зимним вечером — вечером, когда добрая хозяйка собаку из дома не выгонит, злая ... 10 10 2
Info! Золотая раздача, скачанное не засчитывается.
Торрент: Зарегистрирован [2019-12-22 06:44] · скачан: 25 раз
Статус: √ проверено
Размер: 1.45 GB
Как cкачать? Как скачать Двенадцать месяцев через торрент | qTorrent

% Раздел Тема Автор DL S | L
Детские отечественные фильмы [ 2.29 GB ] Двенадцать месяцев [1973 сказка DVDRip-AVC] ADVOKAT69 Скачать
1 | 0
Наши мультфильмы [ 2.09 GB ] Двенадцать месяцев [1956 Мультфильм DVDRip-AVC] ADVOKAT69 Скачать
1 | 0
Наши мультфильмы [ 744 MB ] Двенадцать месяцев [1956 СССР мультфильм BDRip-AVC от AVP Studio] AVP Studio Скачать
1 | 0
Наши Мультфильмы (HD, WEB-DL 720p, 1080p) [ 1.46 GB ] Двенадцать месяцев [1956 СССР мультфильм BDRip 720p от AVP Studio] AVP Studio Скачать
1 | 0
Наши мультфильмы [ 745 MB ] Двенадцать месяцев [1956 СССР мультфильм BDRip от AVP Studio] AVP Studio Скачать
1 | 0
Наши мультфильмы [ 633 MB ] Двенадцать месяцев [1956 мультфильм DVDRip] VanTmX Скачать
1 | 0
Наши мультфильмы [ 1004 MB ] Двенадцать месяцев / Двенадцать месяцев [1956 мультфильм DVDRip] Anonymous Скачать
1 | 0

28-11-2019 20:33  

Отключить всю рекламу на сайте

23-12-2019 03:58 Двенадцать месяцев Скачать торрент  

Топик был перенесен из форума Оформление раздач (Кино, Видео и ТВ) в форум Детские отечественные фильмы


Enigma2010piratbit.pw



    Дорогой пользователь! Огромная просьба, поблагодарите релизера, оцените раздачу и оставьте свои комментарий, если Вы скачали Двенадцать месяцев через торрент бесплатно! Внесите свою лепту в развитие PiratBit!
    Комментировать посты могут только пользователи прошедшие не сложную регистрацию
    Показать сообщения:    

    Двенадцать месяцев через торрент
    Скачать бесплатно Двенадцать месяцев
    Двенадцать месяцев скачать торрент
    Двенадцать месяцев смотреть онлайн
    Cкачать фильм Двенадцать месяцев бесплатно
    Двенадцать месяцев скачать торрент в хорошем качестве
    Двенадцать месяцев смотреть онлайн бесплатно в хорошем качестве


    Вы не можете начинать темы
    Вы не можете отвечать на сообщения
    Вы не можете редактировать свои сообщения
    Вы не можете удалять свои сообщения
    Вы не можете голосовать в опросах
    Вы не можете прикреплять файлы к сообщениям
    Вы можете скачивать файлы