Ссылка на приватное зеркало нашего сайта всего за 1$. Внимание количество ограничено!!!

2 сезон

iTunes

iTunes

1

iTunes

iTunes

iTunes

WEBRip

iTunes

30
pack

Новость дня

ВАЖНО

!!Акция!!

Alien_RageХит недели

RePack

Horizon Zero Dawn

ИГРА 18+

pack

RePack

jed

!!Акция!!

Alien_Rage

RePack

fifa19

RePack

Assassins Creed: Odyssey

RePack

NEED FOR SPEED™ PAYBACK

4 сезон

9 сезон

Бесстыжие 9 сезон

Все сериалы

все сериалы на PB.wtf

RePack

FAR CRY 5
  

Простой карандаш (Наталья Назарова) [2019, Драма, WEB-DL 1080p] [iTunes] piratbit.pw

Простой карандаш через торрент piratbit.pw

Размер: 3.58 GB | Добавлен: 9 мес. назад | Торрент скачан:123 раза
Скачать  

19-12-2019 10:14 Простой карандаш Скачать торрент  

Простой карандаш
Год выпуска: 2019
Страна: Россия
Жанр: Драма
Продолжительность: 01:32:52
Перевод: Не требуется | iTunes
Субтитры: отсутствуют

Режиссер: Наталья Назарова

rating

В ролях: Надежда Горелова, Владимир Мишуков, Александр Кольчевский, Кирилл Веселов, Олеся Иванцова, Александр Доронин, Алина Ходжеванова, Евгений Старцев

Описание: В размеренную жизнь провинциального городка врывается Антонина — гордая, красивая, смелая. Устроившись на работу школьной учительницей рисования, она узнает, что весь город держат в страхе местный хулиган и его старший брат, опасный преступник. Жители делают вид, что их жизнь такая, какой и должна быть, стараясь не высовываться, чтобы не нарваться на неприятности. Но Антонина не готова мириться с таким положением дел в городе.

Качество: WEB-DL 1080p
Формат: MKV

Видео: MPEG-4 AVC, 5026 Кбит/с, 1920x1080
Аудио: 48 kHz, AC3 Dolby Digital, 3/2 (L,C,R,l,r) + LFE ch, ~384 kbps
скриншот  скриншот  скриншот  скриншот  

Video
ID : 1
Format : AVC
Format/Info : Advanced Video Codec
Format profile : High@L4
Format settings : CABAC / 4 Ref Frames
Format settings, CABAC : Yes
Format settings, Reference : 4 frames
Codec ID : V_MPEG4/ISO/AVC
Duration : 1 h 32 min
Bit rate : 5 026 kb/s
Width : 1 920 pixels
Height : 1 080 pixels
Display aspect ratio : 16:9
Frame rate mode : Constant
Frame rate : 24.000 FPS
Color space : YUV
Chroma subsampling : 4:2:0
Bit depth : 8 bits
Scan type : Progressive
Bits/(Pixel*Frame) : 0.101
Stream size : 3.26 GiB (91%)
Title : KARANDASH_2019_WEB-DL_1080p-BLUEBIRD
Language : English
Default : Yes
Forced : No
Color range : Limited
Color primaries : BT.709
Transfer characteristics : BT.709
Matrix coefficients : BT.709

Audio
ID : 2
Format : AC-3
Format/Info : Audio Coding 3
Commercial name : Dolby Digital
Codec ID : A_AC3
Duration : 1 h 32 min
Bit rate mode : Constant
Bit rate : 384 kb/s
Channel(s) : 6 channels
Channel layout : L R C LFE Ls Rs
Sampling rate : 48.0 kHz
Frame rate : 31.250 FPS (1536 SPF)
Compression mode : Lossy
Stream size : 255 MiB (7%)
Title : [ORIGINAL] DD 5.1 @ 384 kbps (iTunes)
Language : Russian
Service kind : Complete Main
Default : Yes
Forced : No

Menu
00:00:00.000 : en:Глава 1
00:08:45.083 : en:Глава 2
00:14:20.624 : en:Глава 3
00:23:07.624 : en:Глава 4
00:30:59.707 : en:Глава 5
00:39:15.498 : en:Глава 6
00:45:12.081 : en:Глава 7
00:50:01.081 : en:Глава 8
00:55:48.956 : en:Глава 9
01:00:35.081 : en:Глава 10
01:07:16.081 : en:Глава 11
01:11:51.497 : en:Глава 12
01:16:20.830 : en:Глава 13
01:22:26.871 : en:Глава 14
01:28:29.121 : en:Глава 15

piratbit.pw



Скачать Простой карандаш через торрент https://b.radikal.ru/b35/1912/35/75c35c375bc0.png Скачать фильм Простой карандаш через торрент бесплантно в хорошем качестве Описание: В размеренную жизнь провинциального городка врывается Антонина — гордая, красивая, смелая. Устроившись на работу школьной ... 10 10 7
Торрент: Зарегистрирован [2019-12-19 10:14] · скачан: 123 раз
Статус: √ проверено
Размер: 3.58 GB
Как cкачать? Как скачать Простой карандаш через торрент | qTorrent

% Раздел Тема Автор DL S | L
Наши новые фильмы 2018-2019 [ 700 MB ] Простой карандаш [2019 WEB-DLRip Русский] coc900 Скачать
1 | 0
Наши новые фильмы 2018-2019 [ 1.46 GB ] Простой карандаш [2019 WEB-DLRip] bober100 Скачать
4 | 0
Фото Разное [ 52 MB ] Девушки нарисованные простым карандашом [439штJPEG 323x400-1398x1700] Anonymous Скачать
1 | 0

28-11-2019 20:33  

Отключить всю рекламу на сайте

    Дорогой пользователь! Огромная просьба, поблагодарите релизера, оцените раздачу и оставьте свои комментарий, если Вы скачали Простой карандаш через торрент бесплатно! Внесите свою лепту в развитие PiratBit!
    Комментировать посты могут только пользователи прошедшие не сложную регистрацию
    Показать сообщения:    

    Простой карандаш через торрент
    Скачать бесплатно Простой карандаш
    Простой карандаш скачать торрент
    Простой карандаш смотреть онлайн
    Cкачать фильм Простой карандаш бесплатно
    Простой карандаш скачать торрент в хорошем качестве
    Простой карандаш смотреть онлайн бесплатно в хорошем качестве


    Вы не можете начинать темы
    Вы не можете отвечать на сообщения
    Вы не можете редактировать свои сообщения
    Вы не можете удалять свои сообщения
    Вы не можете голосовать в опросах
    Вы не можете прикреплять файлы к сообщениям
    Вы можете скачивать файлы