Ссылка на приватное зеркало нашего сайта всего за 1$. Внимание количество ограничено!!!

2 сезон

iTunes

1 сезон

1

iTunes

iTunes

iTunes

1 сезон

RePack

30

ИГРА 18+

pack

ВАЖНО

!!Акция!!

Alien_RageХит недели

RePack

MK11
pack

Забери бонус

RePack

jed

!!Акция!!

Alien_Rage

RePack

fifa19

RePack

Assassins Creed: Odyssey

RePack

NEED FOR SPEED™ PAYBACK

4 сезон

9 сезон

Бесстыжие 9 сезон

Все сериалы

все сериалы на PB.wtf

RePack

FAR CRY 5
  

Операция «Арбалет» / Operation Crossbow (Майкл Андерсон) [1965, боевик, драма, военный, BDRip 1080p by msltel] MVO, AVO piratbit.pw

Операция «Арбалет» через торрент piratbit.pw

Размер: 13.5 GB | Добавлен: 10 мес. назад | Торрент скачан:0 раз
Скачать  

18-12-2019 05:40 Операция «Арбалет» Скачать торрент  

Название: Операция «Арбалет»
Оригинальное название: Operation Crossbow
Год выпуска: 1965
Страна: Великобритания
Жанр: боевик, драма, военный
Продолжительность: 01:56:20
Перевод: профессиональный многоголосый, авторский

Режиссер: Майкл Андерсон
В ролях: Джордж Пепперд, Том Кортни, Софи Лорен, Лилли Палмер, Тревор Ховард, Джереми Кемп, Джон Миллс, Ричард Джонсон, Энтони Куэйл, Джереми Спенсер, Филип Мэдок, Чарльз Ллойд Пэк, Гертан Клаубер, Дрюи Хенли, Джон Дж. Хеллер, Фрэнк Фоли, Антон Диффринг, Джон Элдертон, Джон Абинери, Роберт Браун, Ферди Мэйн, Джордж Микелл, Майло Спербер, Уильям Мервин, Карел Степанек, Аллан Катбертсон, Ричард Уоттис, Пол Хенрейд

О фильме: В декабре 1942 года британская разведка получает информацию о новом оружии возмездия немцев — ракетах большой дальности. На основе аэрофотоснимков место расположения пусковых установок было найдено и уничтожено RAF. Но ракеты Фау продолжают падать на Лондон. Становится понятным, что главная цель не была уничтожена. По сообщениям разведки, ракеты V-1 и V-2 производятся на острове Узедом в Балтийском море. Принято решение отправить на тщательно охраняемый подземный завод по производству ракет ФАУ-2 трёх агентов-экспертов под видом специально подготовленных инженеров. Их задача — сбор информации и передача её в Лондон. Но никто из них даже не подозревает, что миссия с самого начала обречена на провал: на завод внедрён двойной агент... Фильм основан на реальных событиях.



Качество: BDRip 1080p
Формат: MKV
Видео: MPEG-4 AVC, 14.5 Mбит/с, 1920x816, 23.976 кадр/с
Аудио 1: русский, AC3, 192 kbps, 2 ch, 48 kHz [закадровый многоголосый, TB5]
Аудио 2: русский, AC3, 384 kbps, 6 ch, 48 kHz [авторский, Сергей Рябов]
Аудио 3: английский, DTS, 1509 kbps, 6 ch, 48 kHz [оригинал]
Субтитры: английские
Хардсабы на неанглийскую речь
Главы/чаптеры
Общее
Уникальный идентификатор : 253074680396415366604943761829808936964 (0xBE64691774E0914FBC9B788262059804)
Полное имя : D:\Video\Операция Арбалет.1965.BDRip 1080p by msltel.mkv
Формат : Matroska
Версия формата : Version 4
Размер файла : 13,5 Гбайт
Продолжительность : 1 ч. 56 м.
Общий поток : 16,6 Мбит/сек
Название фильма : Rip by msltel
Дата кодирования : UTC 2019-12-18 02:15:44
Программа кодирования : mkvmerge v8.2.0 ('World of Adventure') 64bit
Библиотека кодирования : libebml v1.3.1 + libmatroska v1.4.2

Видео
Идентификатор : 1
Формат : AVC
Формат/Информация : Advanced Video Codec
Профиль формата : High@L4.1
Настройки формата : CABAC / 4 Ref Frames
Параметр CABAC формата : Да
Параметр RefFrames формата : 4 кадра
Идентификатор кодека : V_MPEG4/ISO/AVC
Продолжительность : 1 ч. 56 м.
Битрейт : 14,5 Мбит/сек
Ширина : 1920 пикселей
Высота : 816 пикселей
Соотношение сторон : 2,35:1
Режим частоты кадров : Постоянный
Частота кадров : 23,976 (24000/1001) кадра/сек
Цветовое пространство : YUV
Субдискретизация насыщенности : 4:2:0
Битовая глубина : 8 бит
Тип развёртки : Прогрессивная
Бит/(Пиксели*Кадры) : 0.387
Размер потока : 11,8 Гбайт (87%)
Библиотека кодирования : x264 core 157 r2935 545de2f
Настройки программы : cabac=1 / ref=4 / deblock=1:-2:-2 / analyse=0x3:0x113 / me=umh / subme=11 / psy=1 / psy_rd=1.00:0.15 / mixed_ref=1 / me_range=32 / chroma_me=1 / trellis=2 / 8x8dct=1 / cqm=0 / deadzone=21,11 / fast_pskip=0 / chroma_qp_offset=-3 / threads=6 / lookahead_threads=1 / sliced_threads=0 / nr=0 / decimate=1 / interlaced=0 / bluray_compat=0 / constrained_intra=0 / bframes=9 / b_pyramid=2 / b_adapt=2 / b_bias=0 / direct=1 / weightb=1 / open_gop=0 / weightp=2 / keyint=230 / keyint_min=23 / scenecut=40 / intra_refresh=0 / rc_lookahead=40 / rc=crf / mbtree=0 / crf=18.7 / qcomp=0.60 / qpmin=0 / qpmax=69 / qpstep=4 / vbv_maxrate=50000 / vbv_bufsize=62500 / crf_max=0.0 / nal_hrd=none / filler=0 / ip_ratio=1.40 / pb_ratio=1.30 / aq=1:1.00
Язык : English
Default : Да
Forced : Нет

Аудио #1
Идентификатор : 2
Формат : AC-3
Формат/Информация : Audio Coding 3
Коммерческое название : Dolby Digital
Идентификатор кодека : A_AC3
Продолжительность : 1 ч. 56 м.
Вид битрейта : Постоянный
Битрейт : 192 Кбит/сек
Каналы : 2 канала
ChannelLayout : L R
Частота : 48,0 КГц
Частота кадров : 31,250 кадров/сек (1536 SPF)
Метод сжатия : С потерями
Размер потока : 160 Мбайт (1%)
Заголовок : MVO TB5
Язык : Russian
ServiceKind/String : Complete Main
Default : Да
Forced : Нет

Аудио #2
Идентификатор : 3
Формат : AC-3
Формат/Информация : Audio Coding 3
Коммерческое название : Dolby Digital
Идентификатор кодека : A_AC3
Продолжительность : 1 ч. 56 м.
Вид битрейта : Постоянный
Битрейт : 384 Кбит/сек
Каналы : 6 каналов
ChannelLayout : L R C LFE Ls Rs
Частота : 48,0 КГц
Частота кадров : 31,250 кадров/сек (1536 SPF)
Метод сжатия : С потерями
Размер потока : 320 Мбайт (2%)
Заголовок : Сергей Рябов
Язык : Russian
ServiceKind/String : Complete Main
Default : Нет
Forced : Нет

Аудио #3
Идентификатор : 4
Формат : DTS
Формат/Информация : Digital Theater Systems
Идентификатор кодека : A_DTS
Продолжительность : 1 ч. 56 м.
Вид битрейта : Постоянный
Битрейт : 1509 Кбит/сек
Каналы : 6 каналов
ChannelLayout : C L R Ls Rs LFE
Частота : 48,0 КГц
Частота кадров : 93,750 кадра/сек (512 SPF)
Битовая глубина : 24 бит
Метод сжатия : С потерями
Размер потока : 1,23 Гбайт (9%)
Заголовок : original
Язык : English
Default : Нет
Forced : Нет

Текст
Идентификатор : 5
Формат : UTF-8
Идентификатор кодека : S_TEXT/UTF8
Идентификатор кодека/Информация : UTF-8 Plain Text
Продолжительность : 1 ч. 55 м.
Битрейт : 45 бит/сек
ElementCount : 1409
Размер потока : 38,9 Кбайт (0%)
Заголовок : английские
Язык : English
Default : Нет
Forced : Нет

Меню
00:00:00.000 : en:Chapter 01
00:02:09.462 : en:Chapter 02
00:04:30.436 : en:Chapter 03
00:09:13.761 : en:Chapter 04
00:12:46.098 : en:Chapter 05
00:18:49.211 : en:Chapter 06
00:22:58.377 : en:Chapter 07
00:26:04.521 : en:Chapter 08
00:32:01.294 : en:Chapter 09
00:37:41.050 : en:Chapter 10
00:41:54.929 : en:Chapter 11
00:46:28.160 : en:Chapter 12
00:50:07.170 : en:Chapter 13
00:55:31.286 : en:Chapter 14
01:02:07.890 : en:Chapter 15
01:05:48.819 : en:Chapter 16
01:11:00.381 : en:Chapter 17
01:16:45.058 : en:Chapter 18
01:19:57.334 : en:Chapter 19
01:25:35.421 : en:Chapter 20
01:32:27.833 : en:Chapter 21
01:37:48.946 : en:Chapter 22
01:41:28.499 : en:Chapter 23
01:45:22.607 : en:Chapter 24
01:48:21.620 : en:Chapter 25
01:52:27.574 : en:Chapter 26
01:54:56.139 : en:Chapter 27
01:55:58.534 : en:Chapter 28
01:56:19.097 : en:Chapter 29
piratbit.pw



Скачать Операция «Арбалет» через торрент https://b.radikal.ru/b05/1912/ea/2dc7a8a95538.jpg Скачать фильм Операция «Арбалет» через торрент бесплантно в хорошем качестве О фильме: В декабре 1942 года британская разведка получает информацию о новом оружии возмездия немцев — ракетах большой дальности. На ... 5 10 1
Info! Золотая раздача, скачанное не засчитывается.
Торрент: Зарегистрирован [2019-12-18 05:40] · скачан: 0 раз
Статус: √ проверено
Размер: 13.5 GB
Как cкачать? Как скачать Операция «Арбалет» через торрент | qTorrent

% Раздел Тема Автор DL S | L
Классика зарубежного кино [ 4.71 GB ] Операция «Арбалет» / Operation Crossbow [1965 военный BDRip 720p by msltel] MVO AVO msltel Скачать
1 | 0
Классика зарубежного кино [ 2.76 GB ] Операция «Арбалет» / Operation Crossbow [1965 военный BDRip by msltel] MVO AVO msltel Скачать
1 | 0

28-11-2019 20:33  

Отключить всю рекламу на сайте

    Дорогой пользователь! Огромная просьба, поблагодарите релизера, оцените раздачу и оставьте свои комментарий, если Вы скачали Операция «Арбалет» через торрент бесплатно! Внесите свою лепту в развитие PiratBit!
    Комментировать посты могут только пользователи прошедшие не сложную регистрацию
    Показать сообщения:    

    Операция «Арбалет» через торрент
    Скачать бесплатно Операция «Арбалет»
    Операция «Арбалет» скачать торрент
    Операция «Арбалет» смотреть онлайн
    Cкачать фильм Операция «Арбалет» бесплатно
    Операция «Арбалет» скачать торрент в хорошем качестве
    Операция «Арбалет» смотреть онлайн бесплатно в хорошем качестве


    Вы не можете начинать темы
    Вы не можете отвечать на сообщения
    Вы не можете редактировать свои сообщения
    Вы не можете удалять свои сообщения
    Вы не можете голосовать в опросах
    Вы не можете прикреплять файлы к сообщениям
    Вы можете скачивать файлы