Ссылка на приватное зеркало нашего сайта всего за 1$. Внимание количество ограничено!!!

2 сезон

iTunes

iTunes

1

iTunes

iTunes

iTunes

WEBRip

iTunes

30
pack

Вам бонус

ВАЖНО

!!Акция!!

Alien_RageХит недели

RePack

Horizon Zero Dawn

ИГРА 18+

pack

RePack

jed

!!Акция!!

Alien_Rage

RePack

fifa19

RePack

Assassins Creed: Odyssey

RePack

NEED FOR SPEED™ PAYBACK

4 сезон

9 сезон

Бесстыжие 9 сезон

Все сериалы

все сериалы на PB.wtf

RePack

FAR CRY 5
  

Текст (Клим Шипенко) [2019, Драма, триллер, WEB-DL 1080p, (Версия без цензуры)] [iTunes] piratbit.pw

Текст через торрент piratbit.pw

Раздают: 12 [ 7 KB/s ]
Размер: 4.51 GB | Добавлен: 9 мес. назад | Торрент скачан:1367 раз
Скачать  

17-12-2019 21:30 Текст Скачать торрент  

Текст Год выпуска: 2019
Страна: Россия
Жанр: Драма, триллер
Продолжительность: 02:11:30
Перевод: Не требуется | iTunes
Субтитры: отсутствуют
Версия без цензуры

Режиссер: Клим Шипенко

rating

В ролях:

Александр Петров (Илья Горюнов), Кристина Асмус (Нина), Иван Янковский (Пётр Хазин), Софья Озерова (Вера), Максим Виноградов (Серёга), Виталий Хаев (Денис Сергеевич), Дмитрий Глуховский (пассажир в метро), Кирилл Нагиев (Гоша), Елена Финогеева
Описание: Главный герой — 27-летний Илья Горюнов, семь лет отсидевший в тюрьме по ложному обвинению в распространении наркотиков. Когда Илья выходит на свободу, он понимает, что прежняя жизнь, по которой он тосковал, разрушена, и вернуться к ней он больше не сможет. Хотя он не собирался мстить человеку, который отправил его в тюрьму, другого выхода теперь нет. Встретившись лицом к лицу со своим обидчиком, Илья совершает необдуманный поступок, после которого главный герой получает доступ к смартфону Петра, а с ним и к жизни молодого человека — его фотографиям и видео, перепискам с родителями и девушкой Ниной, к странным, полным недомолвок и угроз переговорам с коллегами. На время Илья становится для всех Петром — через текст на экране телефона.

Качество: WEB-DL 1080p
Формат: MKV

Видео: MPEG-4 AVC, 1920x804 (2,40:1), 24.000 fps, 4427 kbps, 0.119 bit/pixel
Аудио: 48 kHz, AC3 Dolby Digital, 3/2 (L,C,R,l,r) + LFE ch, ~384 kbps
скриншот  скриншот  скриншот  скриншот  скриншот  

Общее
Уникальный идентификатор : 245205233289001732867641062954351688301 (0xB878CF64C1B4819C866E64CA8AF77A6D)
Полное имя : D:\Фильмы\Tekst.2O19.O.WeB-DL.1080p.mkv
Формат : Matroska
Версия формата : Version 4
Размер файла : 4,51 Гбайт
Продолжительность : 2 ч. 11 м.
Общий поток : 4908 Кбит/сек
Дата кодирования : UTC 2019-12-17 19:10:55
Программа кодирования : mkvmerge v6.5.0 ('Isn't she lovely') built on Oct 20 2013 12:50:05
Библиотека кодирования : libebml v1.3.0 + libmatroska v1.4.1

Видео
Идентификатор : 1
Формат : AVC
Формат/Информация : Advanced Video Codec
Профиль формата : High@L4
Настройки формата : CABAC / 5 Ref Frames
Параметр CABAC формата : Да
Параметр RefFrames формата : 5 кадров
Идентификатор кодека : V_MPEG4/ISO/AVC
Продолжительность : 2 ч. 11 м.
Битрейт : 4427 Кбит/сек
Ширина : 1920 пикселей
Высота : 804 пикселя
Соотношение сторон : 2,40:1
Режим частоты кадров : Постоянный
Частота кадров : 24,000 кадра/сек
Цветовое пространство : YUV
Субдискретизация насыщенности : 4:2:0
Битовая глубина : 8 бит
Тип развёртки : Прогрессивная
Бит/(Пиксели*Кадры) : 0.119
Размер потока : 4,07 Гбайт (90%)
Язык : English
Default : Да
Forced : Нет
Цветовой диапазон : Limited
Основные цвета : BT.709
Характеристики трансфера : BT.709
Коэффициенты матрицы : BT.709

Аудио
Идентификатор : 2
Формат : AC-3
Формат/Информация : Audio Coding 3
Коммерческое название : Dolby Digital
Идентификатор кодека : A_AC3
Продолжительность : 2 ч. 11 м.
Вид битрейта : Постоянный
Битрейт : 384 Кбит/сек
Каналы : 6 каналов
ChannelLayout : L R C LFE Ls Rs
Частота : 48,0 КГц
Частота кадров : 31,250 кадров/сек (1536 SPF)
Метод сжатия : С потерями
Размер потока : 361 Мбайт (8%)
Язык : Russian
ServiceKind/String : Complete Main
Default : Да
Forced : Нет

Меню
00:00:00.000 : ru:Глава 1
00:04:52.125 : ru:Глава 2
00:10:33.916 : ru:Глава 3
00:15:49.332 : ru:Глава 4
00:22:12.040 : ru:Глава 5
00:33:46.665 : ru:Глава 6
00:40:08.790 : ru:Глава 7
00:50:25.248 : ru:Глава 8
00:55:08.748 : ru:Глава 9
01:02:37.498 : ru:Глава 10
01:13:17.873 : ru:Глава 11
01:22:30.914 : ru:Глава 12
01:29:07.455 : ru:Глава 13
01:34:49.871 : ru:Глава 14
01:40:12.162 : ru:Глава 15
01:46:42.537 : ru:Глава 16
01:55:16.328 : ru:Глава 15
02:06:00.744 : ru:Глава 16

piratbit.pw



Скачать Текст через торрент https://d.radikal.ru/d00/1912/20/6ba54be3bf02.png Скачать фильм Текст через торрент бесплантно в хорошем качестве Описание: Главный герой — 27-летний Илья Горюнов, семь лет отсидевший в тюрьме по ложному обвинению в распространении наркотиков. Когда ... 9.4 10 32
Info! Золотая раздача, скачанное не засчитывается.
Торрент: Зарегистрирован [2019-12-17 21:30] · скачан: 1 367 раз
Статус: √ проверено
Размер: 4.51 GB
Как cкачать? Как скачать Текст через торрент | qTorrent

% Раздел Тема Автор DL S | L
Фантастика, фентези, мистика, ужасы [ 34 MB ] Азимов Айзек - Азимов Айзек - подборка книг [Обычный текст] Vladimir_73 Скачать
1 | 2
Фантастика, фентези, мистика, ужасы [ 3 MB ] Андрей Круз - Трилогия"Эпоха мёртвых" [Обычный текст] Anonymous Скачать
1 | 0
Фильмы 2012 [ 1.45 GB ] Третий лишний / Ted [2012 BDRip VO )] / UNRATED Userman4ik Скачать
1 | 0
Русификаторы [ 7.49 GB ] Call of Duty: Modern Warfare 3 [Текст + Звук] 2011 PC / Русификатор 2011] ElectroVamp Скачать
1 | 0
XBox360 [ 8.14 GB ] [XBOX 360]Medal of Honor Warfighter [Multiplayer Only]+ HD текстуры 2012[PAL][RUSSOUND][LT+ v3.0] samuel Скачать
1 | 0
Русификаторы [ 190 MB ] Русификатор Fallout: New Vegas [ТекстПрофес​сиональный] =Чувак= Скачать
1 | 0
Русификаторы [ 5 MB ] Русификатор для Kingdoms Of Amalur: Reckoning ) [1.0] SEYTER Скачать
1 | 0

28-11-2019 20:33  

Отключить всю рекламу на сайте

24-12-2019 13:34 Текст Скачать торрент  

а вы тоже смотрели лишь сцену Петров-Асмус,как и я?Только-честно piratbit.pw



30-12-2019 19:51 Текст Скачать торрент  

Stopper68, ради неё только и качаю)piratbit.pw



    Дорогой пользователь! Огромная просьба, поблагодарите релизера, оцените раздачу и оставьте свои комментарий, если Вы скачали Текст через торрент бесплатно! Внесите свою лепту в развитие PiratBit!
    Комментировать посты могут только пользователи прошедшие не сложную регистрацию
    Показать сообщения:    

    Текст через торрент
    Скачать бесплатно Текст
    Текст скачать торрент
    Текст смотреть онлайн
    Cкачать фильм Текст бесплатно
    Текст скачать торрент в хорошем качестве
    Текст смотреть онлайн бесплатно в хорошем качестве


    Вы не можете начинать темы
    Вы не можете отвечать на сообщения
    Вы не можете редактировать свои сообщения
    Вы не можете удалять свои сообщения
    Вы не можете голосовать в опросах
    Вы не можете прикреплять файлы к сообщениям
    Вы можете скачивать файлы