1 сезон

1 сезон

iTunes

1

КиноПоиск HD

Кинопоиск HD

iTunes

13

1 сезон

RePack

30

Ultimate

ВАЖНО

ИГРА 18+

pack

RePack

MK11
pack

Легкие деньги

RePack

jed

RePack

fifa19

RePack

RDR2

RePack

NEED FOR SPEED™ PAYBACK

4 сезон

9 сезон

Бесстыжие 9 сезон

Все сериалы

все сериалы на PB.wtf

RePack

FAR CRY 5
  
Magnet ссылка

Джокер / Joker (Тодд Филлипс) [2019, Триллер, драма, WEB-DL 1080p] AVO [А.Важенин [BadBajo] - ExKinoRay piratbit.pw

Джокер через торрент piratbit.pw

Размер: 5.08 GB | Добавлен: 1 год 4 мес. назад | Торрент скачан:345 раз
Скачать  

17-12-2019 05:23 Джокер Скачать торрент  

Название: Джокер
Оригинальное название: Joker
Год выпуска: 2019
Жанр: Триллер, драма, криминал
Режиссер: Тодд Филлипс
В ролях: Хоакин Феникс, Роберт Де Ниро, Зази Битц, Джоли Чань, Марк Мэрон, Фрэнсис Конрой, Мэри Кейт Малат, Ши Уигхэм, Брайан Коллен, Бретт Каллен

Описание:
Готэм, начало 1980-х годов. Комик Артур Флек живет с больной матерью, которая с детства учит его «ходить с улыбкой». Пытаясь нести в мир хорошее и дарить людям радость, Артур сталкивается с человеческой жестокостью и постепенно приходит к выводу, что этот мир получит от него не добрую улыбку, а ухмылку злодея Джокера.


rating

Выпущено: Канада, США, Warner Bros., Village Roadshow Pictures, DC Entertainment, DC Comics, 22 & Indiana Pictures
Продолжительность: 02:01:48
Перевод: Авторский (одноголосый, закадровый) | А.Важенин [BadBajo]

Формат: MKV
Качество: WEB-DL 1080p
Видео: MPEG-4 AVC, 1920x1036, 5142 Kbit/s, 23.976 fps
Звук:
Аудио 1: AC3, 2/0 ch, 448 Kbps - Русский (AVO BadBajo)
Аудио 2: AC3, 5/1 ch, 384 Kbps - Английский
Субтитры: Русские (forced, full (Enigma)), английские
General
Unique ID : 210818299190602765004430238963369325066 (0x9E9A20A562EE40EDB2A3FCD52FD9320A)
Complete name : F:\Joker.2019.AVO.1080p.WEB-DL.ExKinoRay.mkv
Format : Matroska
Format version : Version 2
File size : 5.08 GiB
Duration : 2 h 1 min
Overall bit rate : 5 976 kb/s
Movie name : Joker 2019 from ExKinoRay
Encoded date : UTC 2019-12-17 04:19:54
Writing application : mkvmerge v5.6.0 ('Kenya Kane') built on May 27 2012 16:44:04
Writing library : libebml v1.2.3 + libmatroska v1.3.0

Video
ID : 1
Format : AVC
Format/Info : Advanced Video Codec
Format profile : High@L4
Format settings, CABAC : Yes
Format settings, ReFrames : 4 frames
Codec ID : V_MPEG4/ISO/AVC
Duration : 2 h 1 min
Bit rate : 5 025 kb/s
Width : 1 920 pixels
Height : 1 036 pixels
Display aspect ratio : 1.85:1
Frame rate mode : Constant
Frame rate : 23.976 (24000/1001) FPS
Color space : YUV
Chroma subsampling : 4:2:0
Bit depth : 8 bits
Scan type : Progressive
Bits/(Pixel*Frame) : 0.105
Stream size : 4.28 GiB (84%)
Language : English
Default : Yes
Forced : No
Color range : Limited
Color primaries : BT.709
Transfer characteristics : BT.709
Matrix coefficients : BT.709

Audio #1
ID : 2
Format : AC-3
Format/Info : Audio Coding 3
Mode extension : CM (complete main)
Format settings, Endianness : Big
Codec ID : A_AC3
Duration : 2 h 1 min
Bit rate mode : Constant
Bit rate : 448 kb/s
Channel(s) : 2 channels
Channel positions : Front: L R
Sampling rate : 48.0 kHz
Frame rate : 31.250 FPS (1536 spf)
Compression mode : Lossy
Stream size : 390 MiB (7%)
Title : AVO (BadBajo)
Language : Russian
Default : Yes
Forced : No

Audio #2
ID : 3
Format : AC-3
Format/Info : Audio Coding 3
Mode extension : CM (complete main)
Format settings, Endianness : Big
Codec ID : A_AC3
Duration : 2 h 1 min
Bit rate mode : Constant
Bit rate : 384 kb/s
Channel(s) : 6 channels
Channel positions : Front: L C R, Side: L R, LFE
Sampling rate : 48.0 kHz
Frame rate : 31.250 FPS (1536 spf)
Compression mode : Lossy
Stream size : 335 MiB (6%)
Language : English
Default : No
Forced : No

Text #1
ID : 4
Format : UTF-8
Codec ID : S_TEXT/UTF8
Codec ID/Info : UTF-8 Plain Text
Title : Forced
Language : Russian
Default : Yes
Forced : No

Text #2
ID : 5
Format : UTF-8
Codec ID : S_TEXT/UTF8
Codec ID/Info : UTF-8 Plain Text
Title : Full (Enigma)
Language : Russian
Default : No
Forced : No

Text #3
ID : 6
Format : UTF-8
Codec ID : S_TEXT/UTF8
Codec ID/Info : UTF-8 Plain Text
Title : Full
Language : English
Default : No
Forced : No

Menu
00:00:00.000 : en:1
00:10:28.128 : en:2
00:21:00.635 : en:3
00:28:44.307 : en:4
00:38:13.834 : en:5
00:46:20.904 : en:6
00:56:18.626 : en:7
01:04:40.502 : en:8
01:15:41.079 : en:9
01:26:15.379 : en:10
01:37:01.942 : en:11
01:45:49.719 : en:12
01:55:43.979 : en:13


Релиз от:

Автор релиза: piratbit.pw



Скачать Джокер через торрент https://c.radikal.ru/c39/1911/6e/75f8943a0f77.jpg Скачать фильм Джокер через торрент бесплантно в хорошем качестве Описание: Готэм, начало 1980-х годов. Комик Артур Флек живет с больной матерью, которая с детства учит его «ходить с улыбкой». Пытаясь ... 8.3 10 7
Info! Золотая раздача, скачанное не засчитывается.
Торрент: Зарегистрирован [2019-12-17 05:23] · скачан: 345 раз
Статус: √ проверено
Размер: 5.08 GB
Как cкачать? Как скачать Джокер через торрент | UTorrent

% Раздел Тема Автор DL S | L
T Фильмы с авторской озвучкой [ 1.45 GB ] Джокер / Joker [2019 WEBRip-AVC] AVO [А.Важенин [BadBajo] - ExKinoRay Enigma2010 Скачать
24 | 0

28-11-2019 20:33  

Отключить всю рекламу на сайте

    Дорогой пользователь! Огромная просьба, поблагодарите релизера, оцените раздачу и оставьте свои комментарий, если Вы скачали Джокер через торрент бесплатно! Внесите свою лепту в развитие PiratBit!
    Комментировать посты могут только пользователи прошедшие не сложную регистрацию
    Показать сообщения:    

    Джокер через торрент
    Скачать бесплатно Джокер
    Джокер скачать торрент
    Джокер смотреть онлайн
    Cкачать фильм Джокер бесплатно
    Джокер скачать торрент в хорошем качестве
    Джокер смотреть онлайн бесплатно в хорошем качестве


    Вы не можете начинать темы
    Вы не можете отвечать на сообщения
    Вы не можете редактировать свои сообщения
    Вы не можете удалять свои сообщения
    Вы не можете голосовать в опросах
    Вы не можете прикреплять файлы к сообщениям
    Вы можете скачивать файлы