Ссылка на приватное зеркало нашего сайта всего за 1$. Внимание количество ограничено!!!

2 сезон

iTunes

1 сезон

1

iTunes

iTunes

iTunes

1 сезон

RePack

30

ИГРА 18+

pack

ВАЖНО

!!Акция!!

Alien_RageХит недели

RePack

MK11
pack

Забери бонус

RePack

jed

!!Акция!!

Alien_Rage

RePack

fifa19

RePack

Assassins Creed: Odyssey

RePack

NEED FOR SPEED™ PAYBACK

4 сезон

9 сезон

Бесстыжие 9 сезон

Все сериалы

все сериалы на PB.wtf

RePack

FAR CRY 5
  

Монпарнас, 19 / Les amants de Montparnasse (Жак Беккер) [1958, драма, биография, BDRip (AVC) by msltel] DUB, MVO piratbit.pw

Монпарнас, 19 через торрент piratbit.pw

Размер: 2.62 GB | Добавлен: 10 мес. назад | Торрент скачан:1 раз
Скачать  

15-12-2019 05:53 Монпарнас, 19 Скачать торрент  

Название: Монпарнас, 19
Оригинальное название: Les amants de Montparnasse
Год выпуска: 1958
Страна: Франция, Италия
Жанр: драма, биография
Продолжительность: 01:48:30
Перевод: дублированный, профессиональный многоголосый

Режиссер: Жак Беккер
В ролях: Жерар Филип, Лилли Палмер, Леа Падовани, Жерар Сети, Лино Вентура, Анук Эме, Лиля Кедрова, Арлетт Пуарье, Пакеретт, Марианн Освальд, Жюдит Магр, Денис Вернак, Роберт Рипа, Жан Ланье, Кэрол Сэндс, Жани Клэр, Антуан Тудал, Бруно Бальп, Жак Ферьер

О фильме: Фильм рассказывает о последних годах жизни великого художника Модильяни. Бедный итальянский художник, страдающий от алкоголизма и опиумной зависимости, влюбляется в Жанну Эбютерн, девушку из состоятельной семьи, родители которой категорически против их отношений... Фильм снят по роману Мишеля Жорж-Мишеля «Монпарнасцы».



Качество: BDRip (AVC)
Формат: MKV
Видео: MPEG-4 AVC, 2820 Кбит/с, 956x576
Аудио 1: русский, AC3, 256 kbps, 2 ch, 48 kHz [дублированный, к/с им.Горького с добавлением MVO Пифагор]
Аудио 2: русский, AC3, 192 kbps, 2 ch, 48 kHz [закадровый многоголосый, Пифагор по заказу ВГТРК Культура]
Аудио 3: французский, AC3, 192 kbps, 2 ch, 48 kHz [оригинал]
Субтитры 1: русские
Субтитры 2: французские
Субтитры 3: английские
Главы/чаптеры
Общее
Уникальный идентификатор : 210863155098695686307759205618072831692 (0x9EA2C4368AEB2DB78E59DE44AD6246CC)
Полное имя : D:\Video\Монпарнас,19.1958.BDRip (AVC) by msltel.mkv
Формат : Matroska
Версия формата : Version 4
Размер файла : 2,62 Гбайт
Продолжительность : 1 ч. 48 м.
Общий поток : 3463 Кбит/сек
Название фильма : Rip by msltel
Дата кодирования : UTC 2019-12-14 11:33:23
Программа кодирования : mkvmerge v8.2.0 ('World of Adventure') 64bit
Библиотека кодирования : libebml v1.3.1 + libmatroska v1.4.2

Видео
Идентификатор : 1
Формат : AVC
Формат/Информация : Advanced Video Codec
Профиль формата : High@L4.1
Настройки формата : CABAC / 9 Ref Frames
Параметр CABAC формата : Да
Параметр RefFrames формата : 9 кадров
Идентификатор кодека : V_MPEG4/ISO/AVC
Продолжительность : 1 ч. 48 м.
Битрейт : 2820 Кбит/сек
Ширина : 956 пикселей
Высота : 576 пикселей
Соотношение сторон : 5:3
Режим частоты кадров : Постоянный
Частота кадров : 23,976 (24000/1001) кадра/сек
Цветовое пространство : YUV
Субдискретизация насыщенности : 4:2:0
Битовая глубина : 8 бит
Тип развёртки : Прогрессивная
Бит/(Пиксели*Кадры) : 0.214
Размер потока : 2,14 Гбайт (81%)
Библиотека кодирования : x264 core 157 r2935 545de2f
Настройки программы : cabac=1 / ref=9 / deblock=1:-2:-2 / analyse=0x3:0x113 / me=umh / subme=11 / psy=1 / psy_rd=1.00:0.15 / mixed_ref=1 / me_range=32 / chroma_me=1 / trellis=2 / 8x8dct=1 / cqm=0 / deadzone=21,11 / fast_pskip=0 / chroma_qp_offset=-3 / threads=6 / lookahead_threads=1 / sliced_threads=0 / nr=0 / decimate=1 / interlaced=0 / bluray_compat=0 / constrained_intra=0 / bframes=8 / b_pyramid=2 / b_adapt=2 / b_bias=0 / direct=1 / weightb=1 / open_gop=0 / weightp=2 / keyint=230 / keyint_min=23 / scenecut=40 / intra_refresh=0 / rc_lookahead=40 / rc=crf / mbtree=0 / crf=21.0 / qcomp=0.60 / qpmin=0 / qpmax=69 / qpstep=4 / vbv_maxrate=50000 / vbv_bufsize=62500 / crf_max=0.0 / nal_hrd=none / filler=0 / ip_ratio=1.40 / pb_ratio=1.30 / aq=1:1.00
Язык : French
Default : Да
Forced : Нет

Аудио #1
Идентификатор : 2
Формат : AC-3
Формат/Информация : Audio Coding 3
Коммерческое название : Dolby Digital
Идентификатор кодека : A_AC3
Продолжительность : 1 ч. 48 м.
Вид битрейта : Постоянный
Битрейт : 256 Кбит/сек
Каналы : 2 канала
ChannelLayout : L R
Частота : 48,0 КГц
Частота кадров : 31,250 кадров/сек (1536 SPF)
Метод сжатия : С потерями
Размер потока : 199 Мбайт (7%)
Заголовок : DUB к/с им.Горького с добавлением MVO
Язык : Russian
ServiceKind/String : Complete Main
Default : Да
Forced : Нет

Аудио #2
Идентификатор : 3
Формат : AC-3
Формат/Информация : Audio Coding 3
Коммерческое название : Dolby Digital
Идентификатор кодека : A_AC3
Продолжительность : 1 ч. 48 м.
Вид битрейта : Постоянный
Битрейт : 192 Кбит/сек
Каналы : 2 канала
ChannelLayout : L R
Частота : 48,0 КГц
Частота кадров : 31,250 кадров/сек (1536 SPF)
Метод сжатия : С потерями
Размер потока : 149 Мбайт (6%)
Заголовок : MVO Пифагор по заказу ВГТРК Культура
Язык : Russian
ServiceKind/String : Complete Main
Default : Нет
Forced : Нет

Аудио #3
Идентификатор : 4
Формат : AC-3
Формат/Информация : Audio Coding 3
Коммерческое название : Dolby Digital
Идентификатор кодека : A_AC3
Продолжительность : 1 ч. 48 м.
Вид битрейта : Постоянный
Битрейт : 192 Кбит/сек
Каналы : 2 канала
ChannelLayout : L R
Частота : 48,0 КГц
Частота кадров : 31,250 кадров/сек (1536 SPF)
Метод сжатия : С потерями
Размер потока : 149 Мбайт (6%)
Заголовок : original
Язык : French
ServiceKind/String : Complete Main
Default : Нет
Forced : Нет

Текст #1
Идентификатор : 5
Формат : UTF-8
Идентификатор кодека : S_TEXT/UTF8
Идентификатор кодека/Информация : UTF-8 Plain Text
Продолжительность : 1 ч. 47 м.
Битрейт : 66 бит/сек
ElementCount : 1099
Размер потока : 52,1 Кбайт (0%)
Заголовок : русские
Язык : Russian
Default : Нет
Forced : Нет

Текст #2
Идентификатор : 6
Формат : UTF-8
Идентификатор кодека : S_TEXT/UTF8
Идентификатор кодека/Информация : UTF-8 Plain Text
Продолжительность : 1 ч. 45 м.
Битрейт : 43 бит/сек
ElementCount : 1064
Размер потока : 33,9 Кбайт (0%)
Заголовок : французские
Язык : French
Default : Нет
Forced : Нет

Текст #3
Идентификатор : 7
Формат : UTF-8
Идентификатор кодека : S_TEXT/UTF8
Идентификатор кодека/Информация : UTF-8 Plain Text
Продолжительность : 1 ч. 46 м.
Битрейт : 37 бит/сек
ElementCount : 1113
Размер потока : 28,8 Кбайт (0%)
Заголовок : английские
Язык : English
Default : Нет
Forced : Нет

Меню
00:00:00.000 : en:Chapter 1
00:10:03.894 : en:Chapter 2
00:20:57.923 : en:Chapter 3
00:31:08.241 : en:Chapter 4
00:41:17.850 : en:Chapter 5
00:51:21.745 : en:Chapter 6
01:02:36.085 : en:Chapter 7
01:11:18.816 : en:Chapter 8
01:19:47.240 : en:Chapter 9
01:33:03.828 : en:Chapter 10
01:39:50.818 : en:Chapter 11
piratbit.pw



Скачать Монпарнас, 19 через торрент https://a.radikal.ru/a21/1912/61/107d7067096a.jpg Скачать фильм Монпарнас, 19 через торрент бесплантно в хорошем качестве О фильме: Фильм рассказывает о последних годах жизни великого художника Модильяни. Бедный итальянский художник, страдающий от алкоголизма и ... 5 10 1
Торрент: Зарегистрирован [2019-12-15 05:53] · скачан: 1 раз
Статус: √ проверено
Размер: 2.62 GB
Как cкачать? Как скачать Монпарнас, 19 через торрент | qTorrent

% Раздел Тема Автор DL S | L
Классика зарубежного кино [ 11.91 GB ] Монпарнас 19 / Les amants de Montparnasse [1958 биография BDRip 1080p by msltel] DUB MVO msltel Скачать
1 | 0
Классика зарубежного кино [ 5.07 GB ] Монпарнас 19 / Les amants de Montparnasse [1958 биография BDRip 720p by msltel] DUB MVO msltel Скачать
1 | 0

28-11-2019 20:33  

Отключить всю рекламу на сайте

    Дорогой пользователь! Огромная просьба, поблагодарите релизера, оцените раздачу и оставьте свои комментарий, если Вы скачали Монпарнас, 19 через торрент бесплатно! Внесите свою лепту в развитие PiratBit!
    Комментировать посты могут только пользователи прошедшие не сложную регистрацию
    Показать сообщения:    

    Монпарнас, 19 через торрент
    Скачать бесплатно Монпарнас, 19
    Монпарнас, 19 скачать торрент
    Монпарнас, 19 смотреть онлайн
    Cкачать фильм Монпарнас, 19 бесплатно
    Монпарнас, 19 скачать торрент в хорошем качестве
    Монпарнас, 19 смотреть онлайн бесплатно в хорошем качестве


    Вы не можете начинать темы
    Вы не можете отвечать на сообщения
    Вы не можете редактировать свои сообщения
    Вы не можете удалять свои сообщения
    Вы не можете голосовать в опросах
    Вы не можете прикреплять файлы к сообщениям
    Вы можете скачивать файлы