Ссылка на приватное зеркало нашего сайта всего за 1$. Внимание количество ограничено!!!

2 сезон

iTunes

iTunes

1

iTunes

iTunes

iTunes

WEBRip

iTunes

30
pack

Новость дня

ВАЖНО

!!Акция!!

Alien_RageХит недели

RePack

Horizon Zero Dawn

ИГРА 18+

pack

RePack

jed

!!Акция!!

Alien_Rage

RePack

fifa19

RePack

Assassins Creed: Odyssey

RePack

NEED FOR SPEED™ PAYBACK

4 сезон

9 сезон

Бесстыжие 9 сезон

Все сериалы

все сериалы на PB.wtf

RePack

FAR CRY 5
  

Полный расколбас / Sausage Party (Грег Тирнан, Конрад Вернон) [2016, мультфильм, фэнтези, комедия, UHD BDRemux 2160p] DUB [Лицензия] + 3xAVO piratbit.pw

Полный расколбас через торрент piratbit.pw

Размер: 41.62 GB | Добавлен: 9 мес. назад | Торрент скачан:15 раз
Скачать  

14-12-2019 13:01 Полный расколбас Скачать торрент  

Полный расколбас / Sausage Party««Стоять до конца!»»

Год выпуска: 2016
Страна: США
Жанр: мультфильм, фэнтези, комедия
Продолжительность: 01:25:49
Перевод 1: Профессиональный (дублированный) Blu-Ray
Перевод 2: Авторский (одноголосый закадровый) Д. Пучков aka Goblin | ненормативная лексика
Перевод 3: Авторский (одноголосый закадровый) А. Алексеев
Перевод 4: Авторский (одноголосый закадровый) М. Чадов | ненормативная лексика
Субтитры: русские (forced, full), английские (full, SDH)

Режиссер: Грег Тирнан, Конрад Вернон
В ролях:

Сет Роген (Frank / Sergeant Pepper, озвучка), Кристен Уиг (Brenda, озвучка), Джона Хилл (Carl, озвучка), Билл Хейдер (Firewater / Tequila / El Guaco, озвучка), Майкл Сера (Barry, озвучка), Джеймс Франко (Druggie, озвучка), Дэнни Макбрайд (Honey Mustard, озвучка), Крэйг Робинсон (Grits, озвучка), Пол Радд (Darren, озвучка), Ник Кролл (Douche, озвучка), Дэвид Крамхолц (Lavash, озвучка), Эдвард Нортон (Sammy, озвучка)
Описание:
Первая анимационная комедия для взрослых о невероятных приключениях еды из супермаркета. Съедобным друзьям предстоит получить ответ на главный вопрос: есть ли жизнь за стенами супермаркета, и что же происходит с продуктами после того, как они попадают к людям домой?
Рейтинг:

MPAA: R - Лицам до 17 лет обязательно присутствие взрослого
Качество: UHD BDRemux 2160p
Формат: MKV
Видео: MPEG-H HEVC Video / 55343 kbps / 3840x2160 / 23.976 fps / 16:9 / Main 10 @ Level 5.1 @ High / 4:2:0 / 10 bits / HDR10 / BT.2020 /
Аудио 1: Russian AC3 / 5.1 / 48 kHz / 640 kbps |Dub, UHD Blu-Ray|
Аудио 2: Russian AC3 / 2.0 / 48 kHz / 192 kbps |Д. Пучков aka Goblin|
Аудио 3: Russian DTS-HD Master Audio / 5.1 / 48 kHz / 2345 kbps / 16-bit (DTS Core: 5.1 / 48 kHz / 1509 kbps / 16-bit) |А. Алексеев|
Аудио 4: Russian DTS-HD Master Audio / 5.1 / 48 kHz / 2366 kbps / 16-bit (DTS Core: 5.1 / 48 kHz / 1509 kbps / 16-bit) |М. Чадов|
Аудио 5: Ukrainian AC3 / 2.0 / 48 kHz / 192 kbps |Дубляж|
Аудио 6: English Dolby Atmos/TrueHD Audio / 7.1-Atmos / 48 kHz / 5982 kbps / 24-bit |original|
Аудио 7: English AC3 Core: 5.1 / 48 kHz / 640 kbps|original|
Навигация по главам: есть

Общее
Уникальный идентификатор : 259435392366553147628447717964206896062 (0xC32D70677F9483473B3188B7B84CF3BE)
Полное имя : H:\UHD\Полный расколбас.2016.UHD.Blu-Ray.Remux.2160p.mkv
Формат : Matroska
Версия формата : Version 4
Размер файла : 41,6 Гбайт
Продолжительность : 1 ч. 28 м.
Режим общего битрейта : Переменный
Общий поток : 67,1 Мбит/сек
Дата кодирования : UTC 2019-12-08 20:07:46
Программа кодирования : mkvmerge v41.0.0 ('Smarra') 64-bit
Библиотека кодирования : libebml v1.3.9 + libmatroska v1.5.2
Attachments : poster.jpg

Видео
Идентификатор : 1
Формат : HEVC
Формат/Информация : High Efficiency Video Coding
Профиль формата : Main 10@L5.1@High
HDR_Format/String : SMPTE ST 2086, HDR10 compatible
Идентификатор кодека : V_MPEGH/ISO/HEVC
Продолжительность : 1 ч. 28 м.
Битрейт : 55,3 Мбит/сек
Ширина : 3840 пикселей
Высота : 2160 пикселей
Соотношение сторон : 16:9
Режим частоты кадров : Постоянный
Частота кадров : 23,976 (24000/1001) кадра/сек
Цветовое пространство : YUV
Субдискретизация насыщенности : 4:2:0 (Type 2)
Битовая глубина : 10 бит
Бит/(Пиксели*Кадры) : 0.278
Размер потока : 34,3 Гбайт (82%)
Default : Да
Forced : Нет
Цветовой диапазон : Limited
Основные цвета : BT.2020
Характеристики трансфера : PQ
Коэффициенты матрицы : BT.2020 non-constant
MasteringDisplay_ColorPrimaries : Display P3
MasteringDisplay_Luminance : min: 0.0050 cd/m2, max: 4000 cd/m2
MaxCLL : 1203 cd/m2
MaxFALL : 281 cd/m2

Аудио #1
Идентификатор : 2
Формат : AC-3
Формат/Информация : Audio Coding 3
Коммерческое название : Dolby Digital
Идентификатор кодека : A_AC3
Продолжительность : 1 ч. 28 м.
Вид битрейта : Постоянный
Битрейт : 640 Кбит/сек
Каналы : 6 каналов
ChannelLayout : L R C LFE Ls Rs
Частота : 48,0 КГц
Частота кадров : 31,250 кадров/сек (1536 SPF)
Метод сжатия : С потерями
Размер потока : 406 Мбайт (1%)
Заголовок : Dub, UHD Blu-Ray
Язык : Russian
ServiceKind/String : Complete Main
Default : Да
Forced : Нет

Аудио #2
Идентификатор : 3
Формат : AC-3
Формат/Информация : Audio Coding 3
Коммерческое название : Dolby Digital
Идентификатор кодека : A_AC3
Продолжительность : 1 ч. 28 м.
Вид битрейта : Постоянный
Битрейт : 192 Кбит/сек
Каналы : 2 канала
ChannelLayout : L R
Частота : 48,0 КГц
Частота кадров : 31,250 кадров/сек (1536 SPF)
Метод сжатия : С потерями
Размер потока : 122 Мбайт (0%)
Заголовок : Д. Пучков aka Goblin
Язык : Russian
ServiceKind/String : Complete Main
Default : Нет
Forced : Нет

Аудио #3
Идентификатор : 4
Формат : DTS XLL
Формат/Информация : Digital Theater Systems
Коммерческое название : DTS-HD Master Audio
Идентификатор кодека : A_DTS
Продолжительность : 1 ч. 28 м.
Вид битрейта : Переменный
Битрейт : 2345 Кбит/сек
Каналы : 6 каналов
ChannelLayout : C L R Ls Rs LFE
Частота : 48,0 КГц
Частота кадров : 93,750 кадра/сек (512 SPF)
Битовая глубина : 16 бит
Метод сжатия : Без потерь
Размер потока : 1,45 Гбайт (3%)
Заголовок : А. Алексеев
Язык : Russian
Default : Нет
Forced : Нет

Аудио #4
Идентификатор : 5
Формат : DTS XLL
Формат/Информация : Digital Theater Systems
Коммерческое название : DTS-HD Master Audio
Идентификатор кодека : A_DTS
Продолжительность : 1 ч. 28 м.
Вид битрейта : Переменный
Битрейт : 2366 Кбит/сек
Каналы : 6 каналов
ChannelLayout : C L R Ls Rs LFE
Частота : 48,0 КГц
Частота кадров : 93,750 кадра/сек (512 SPF)
Битовая глубина : 16 бит
Метод сжатия : Без потерь
Размер потока : 1,47 Гбайт (4%)
Заголовок : М. Чадов
Язык : Russian
Default : Нет
Forced : Нет

Аудио #5
Идентификатор : 6
Формат : AC-3
Формат/Информация : Audio Coding 3
Коммерческое название : Dolby Digital
Идентификатор кодека : A_AC3
Продолжительность : 1 ч. 28 м.
Вид битрейта : Постоянный
Битрейт : 192 Кбит/сек
Каналы : 2 канала
ChannelLayout : L R
Частота : 48,0 КГц
Частота кадров : 31,250 кадров/сек (1536 SPF)
Метод сжатия : С потерями
Размер потока : 122 Мбайт (0%)
Заголовок : Дубляж
Язык : Ukrainian
ServiceKind/String : Complete Main
Default : Нет
Forced : Нет

Аудио #6
Идентификатор : 7
Формат : MLP FBA 16-ch
Формат/Информация : Meridian Lossless Packing FBA with 16-channel presentation
Коммерческое название : Dolby TrueHD with Dolby Atmos
Идентификатор кодека : A_TRUEHD
Продолжительность : 1 ч. 28 м.
Вид битрейта : Переменный
Битрейт : 5342 Кбит/сек
Максимальный битрейт : 8214 Кбит/сек
Каналы : 8 каналов
ChannelLayout : L R C LFE Ls Rs Lb Rb
Частота : 48,0 КГц
Частота кадров : 1200,000 кадров/сек (40 SPF)
Метод сжатия : Без потерь
Размер потока : 3,31 Гбайт (8%)
Язык : English
Default : Нет
Forced : Нет
NumberOfDynamicObjects : 11
BedChannelCount/String : 1 канал
BedChannelConfiguration : LFE

Аудио #7
Идентификатор : 8
Формат : AC-3
Формат/Информация : Audio Coding 3
Коммерческое название : Dolby Digital
Идентификатор кодека : A_AC3
Продолжительность : 1 ч. 28 м.
Вид битрейта : Постоянный
Битрейт : 640 Кбит/сек
Каналы : 6 каналов
ChannelLayout : L R C LFE Ls Rs
Частота : 48,0 КГц
Частота кадров : 31,250 кадров/сек (1536 SPF)
Метод сжатия : С потерями
Размер потока : 406 Мбайт (1%)
Язык : English
ServiceKind/String : Complete Main
Default : Нет
Forced : Нет

Текст #1
Идентификатор : 9
Формат : UTF-8
Идентификатор кодека : S_TEXT/UTF8
Идентификатор кодека/Информация : UTF-8 Plain Text
Продолжительность : 1 ч. 22 м.
Битрейт : 4 бит/сек
ElementCount : 57
Размер потока : 2,76 Кбайт (0%)
Заголовок : forced
Язык : Russian
Default : Да
Forced : Нет

Текст #2
Идентификатор : 10
Формат : UTF-8
Идентификатор кодека : S_TEXT/UTF8
Идентификатор кодека/Информация : UTF-8 Plain Text
Продолжительность : 1 ч. 22 м.
Битрейт : 131 бит/сек
ElementCount : 1416
Размер потока : 79,7 Кбайт (0%)
Заголовок : full
Язык : Russian
Default : Нет
Forced : Нет

Текст #3
Идентификатор : 11
Формат : UTF-8
Идентификатор кодека : S_TEXT/UTF8
Идентификатор кодека/Информация : UTF-8 Plain Text
Продолжительность : 1 ч. 26 м.
Битрейт : 85 бит/сек
ElementCount : 1457
Размер потока : 53,8 Кбайт (0%)
Заголовок : full
Язык : English
Default : Нет
Forced : Нет

Текст #4
Идентификатор : 12
Формат : UTF-8
Идентификатор кодека : S_TEXT/UTF8
Идентификатор кодека/Информация : UTF-8 Plain Text
Продолжительность : 1 ч. 27 м.
Битрейт : 91 бит/сек
ElementCount : 1703
Размер потока : 58,0 Кбайт (0%)
Заголовок : SDH
Язык : English
Default : Нет
Forced : Нет

Меню
00:00:00.000 : :Chapter 01
00:04:24.264 : :Chapter 02
00:10:19.118 : :Chapter 03
00:15:27.843 : :Chapter 04
00:19:32.171 : :Chapter 05
00:24:53.700 : :Chapter 06
00:29:32.937 : :Chapter 07
00:35:44.142 : :Chapter 08
00:41:55.262 : :Chapter 09
00:48:18.520 : :Chapter 10
00:54:45.907 : :Chapter 11
00:59:54.507 : :Chapter 12
01:03:47.073 : :Chapter 13
01:08:01.285 : :Chapter 14
01:11:55.060 : :Chapter 15
01:16:03.809 : :Chapter 16
piratbit.pw



Скачать Полный расколбас через торрент https://b.radikal.ru/b30/1912/1f/f9b10435e3f2.png Скачать фильм Полный расколбас через торрент бесплантно в хорошем качестве Описание: Первая анимационная комедия для взрослых о невероятных приключениях еды из супермаркета. Съедобным друзьям предстоит получить ... 10 10 2
Info! Золотая раздача, скачанное не засчитывается.
Торрент: Зарегистрирован [2019-12-14 13:01] · скачан: 15 раз
Статус: √ проверено
Размер: 41.62 GB
Как cкачать? Как скачать Полный расколбас через торрент | qTorrent

28-11-2019 20:33  

Отключить всю рекламу на сайте

    Дорогой пользователь! Огромная просьба, поблагодарите релизера, оцените раздачу и оставьте свои комментарий, если Вы скачали Полный расколбас через торрент бесплатно! Внесите свою лепту в развитие PiratBit!
    Комментировать посты могут только пользователи прошедшие не сложную регистрацию
    Показать сообщения:    

    Полный расколбас через торрент
    Скачать бесплатно Полный расколбас
    Полный расколбас скачать торрент
    Полный расколбас смотреть онлайн
    Cкачать фильм Полный расколбас бесплатно
    Полный расколбас скачать торрент в хорошем качестве
    Полный расколбас смотреть онлайн бесплатно в хорошем качестве


    Вы не можете начинать темы
    Вы не можете отвечать на сообщения
    Вы не можете редактировать свои сообщения
    Вы не можете удалять свои сообщения
    Вы не можете голосовать в опросах
    Вы не можете прикреплять файлы к сообщениям
    Вы можете скачивать файлы