Ссылка на приватное зеркало нашего сайта всего за 1$. Внимание количество ограничено!!!

2 сезон

iTunes

iTunes

1

iTunes

iTunes

iTunes

WEBRip

iTunes

30
pack

Вам бонус

ВАЖНО

!!Акция!!

Alien_RageХит недели

RePack

Horizon Zero Dawn

ИГРА 18+

pack

RePack

jed

!!Акция!!

Alien_Rage

RePack

fifa19

RePack

Assassins Creed: Odyssey

RePack

NEED FOR SPEED™ PAYBACK

4 сезон

9 сезон

Бесстыжие 9 сезон

Все сериалы

все сериалы на PB.wtf

RePack

FAR CRY 5
  

Робо (Сарик Андреасян) [2019, семейный, фантастика, драма, WEB-DL 720p] [iTunes] piratbit.pw

Робо через торрент piratbit.pw

Размер: 2.63 GB | Добавлен: 9 мес. назад | Торрент скачан:107 раз
Скачать  

12-12-2019 16:42 Робо Скачать торрент  

Робо
Год выпуска: 2019
Страна: Россия
Жанр: семейный, фантастика, драма
Продолжительность: 01:27:48
Перевод: Не требуется | iTunes
Субтитры: отсутствуют

Режиссер: Сарик Андреасян

rating

В ролях: Даниил Муравьев-Изотов, Владимир Вдовиченков, Сергей Безруков, Мария Миронова, Константин Лавроненко, Грант Тохатян, Елизавета Моряк, Кристина Орса, Елена Борщева, Клим Бердинский

Описание: 12-летний Митя Привалов мечтает рисовать комиксы о супергероях. Но родители мальчика, инженеры-робототехники, хотят, чтобы он пошел по их стопам. Понимание и поддержку Митя находит там, где не ждал: у созданного родителями робота-спасателя А-112 или просто Робо. Их ждут невероятные приключения, в ходе которых Митя научит нового друга верить в себя и свои мечты, а Робо станет для мальчика примером мужества и ответственности.

Качество: WEB-DL 720p
Формат: MKV

Видео: MPEG4 AVC Video, H264, 2.40:1, 1280x536, 24 fps, 4000 kbps
Аудио: Russian (AC3, 6 ch, 384 kbps, 16 bits, 48.0 KHz) - оригинал
скриншот   скриншот   скриншот  

Общее
Уникальный идентификатор : 189039146124470496145112893674108272840 (0x8E379D7EF17CD007BE3C96086A40C0C8)
Полное имя : D:\Robo.2019.WEB-DL.720p.mkv
Формат : Matroska
Версия формата : Version 2
Размер файла : 2,63 Гбайт
Продолжительность : 1 ч. 27 м.
Общий поток : 4292 Кбит/сек
Дата кодирования : UTC 2019-12-12 06:30:18
Программа кодирования : mkvmerge v8.3.0 ('Over the Horizon') 32bit
Библиотека кодирования : libebml v1.3.1 + libmatroska v1.4.2

Видео
Идентификатор : 1
Формат : AVC
Формат/Информация : Advanced Video Codec
Профиль формата : High@L4.1
Параметр CABAC формата : Да
Параметр RefFrames формата : 4 кадра
Идентификатор кодека : V_MPEG4/ISO/AVC
Продолжительность : 1 ч. 27 м.
Битрейт : 4000 Кбит/сек
Ширина : 1280 пикселей
Высота : 536 пикселей
Соотношение сторон : 2,40:1
Режим частоты кадров : Постоянный
Частота кадров : 24,000 кадра/сек
Цветовое пространство : YUV
Субдискретизация насыщенности : 4:2:0
Битовая глубина : 8 бит
Тип развёртки : Прогрессивная
Бит/(Пиксели*Кадры) : 0.243
Размер потока : 2,34 Гбайт (89%)
Библиотека кодирования : x264 core 142 r2431+42 c69a006 tMod [8-bit@all X86_64]
Настройки программы : cabac=1 / ref=4 / deblock=1:0:0 / analyse=0x3:0x133 / me=hex / subme=2 / psy=1 / fade_compensate=0.00 / psy_rd=1.00:0.00 / mixed_ref=1 / me_range=16 / chroma_me=1 / trellis=2 / 8x8dct=1 / cqm=0 / deadzone=21,11 / fast_pskip=0 / chroma_qp_offset=0 / threads=24 / lookahead_threads=4 / sliced_threads=0 / nr=0 / decimate=1 / interlaced=0 / bluray_compat=0 / constrained_intra=0 / fgo=0 / bframes=2 / b_pyramid=2 / b_adapt=2 / b_bias=0 / direct=1 / weightb=1 / open_gop=0 / weightp=2 / keyint=240 / keyint_min=23 / scenecut=40 / intra_refresh=0 / rc=abr / mbtree=0 / bitrate=4000 / ratetol=1.0 / qcomp=0.60 / qpmin=0:0:0 / qpmax=69:69:69 / qpstep=4 / ip_ratio=1.40 / pb_ratio=1.30 / aq=1:1.00 / aq-sensitivity=10.00 / aq-factor=1.00:1.00:1.00 / aq2=0 / aq3=0
Default : Да
Forced : Нет

Аудио
Идентификатор : 2
Формат : AC-3
Формат/Информация : Audio Coding 3
Расширение режима : CM (complete main)
Параметр Endianness формата : Big
Идентификатор кодека : A_AC3
Продолжительность : 1 ч. 27 м.
Вид битрейта : Постоянный
Битрейт : 384 Кбит/сек
Каналы : 6 каналов
Расположение каналов : Front: L C R, Side: L R, LFE
Частота : 48,0 КГц
Частота кадров : 31,250 кадров/сек (1536 spf)
Метод сжатия : С потерями
Размер потока : 241 Мбайт (9%)
Default : Да
Forced : Нет

piratbit.pw



Скачать Робо через торрент https://b.radikal.ru/b37/1911/df/79922605e9ce.jpg Скачать фильм Робо через торрент бесплантно в хорошем качестве Описание: 12-летний Митя Привалов мечтает рисовать комиксы о супергероях. Но родители мальчика, инженеры-робототехники, хотят, чтобы он ... 8.9 10 7
Торрент: Зарегистрирован [2019-12-12 16:42] · скачан: 107 раз
Статус: √ проверено
Размер: 2.63 GB
Как cкачать? Как скачать Робо через торрент | qTorrent

% Раздел Тема Автор DL S | L
Зарубежные сериалы [ 2.56 GB ] Как Я Встретил Вашу Маму / How I Met Your Mother / [2005 Mело Kомедия DVDRip Пиратка] Reshkut Скачать
1 | 1
Иностранные мультфильмы [ 1.36 GB ] Астробой / Astro Boy [2009 мультфильм HDRip] DEVI Скачать
1 | 0
Зарубежные сериалы [ 2.6 GB ] Как Я Встретил Вашу Маму / How I Met Your Mother / [2006 DVDRip Пиратка] Reshkut Скачать
1 | 0
Фильмы 2001-2005 [ 1.37 GB ] Большая жратва / Waiting.. [2005 HDRip] GoldEX Скачать
1 | 0
Сборники на DVD и Сиквелы [DVDrip, WEB-DLRip, HDrip, BDRip] [ 6.54 GB ] Мумия. Трилогия / The Mummy. Trilogy [1999-2008г BDRip] M@RCU$ Скачать
1 | 0
Фильмы 2010 [ 1.37 GB ] Братство танца: Возвращение домой / Stomp the Yard 2: Homecoming [2010 DVDRip] [ лицензия ] MIO2008 Скачать
1 | 0
# Фильмы до 2000 г. [ 4.2 GB ] Робокоп / RoboCop [1987 HDTVRip ] terraner Скачать
1 | 0

28-11-2019 20:33  

Отключить всю рекламу на сайте

    Дорогой пользователь! Огромная просьба, поблагодарите релизера, оцените раздачу и оставьте свои комментарий, если Вы скачали Робо через торрент бесплатно! Внесите свою лепту в развитие PiratBit!
    Комментировать посты могут только пользователи прошедшие не сложную регистрацию
    Показать сообщения:    

    Робо через торрент
    Скачать бесплатно Робо
    Робо скачать торрент
    Робо смотреть онлайн
    Cкачать фильм Робо бесплатно
    Робо скачать торрент в хорошем качестве
    Робо смотреть онлайн бесплатно в хорошем качестве


    Вы не можете начинать темы
    Вы не можете отвечать на сообщения
    Вы не можете редактировать свои сообщения
    Вы не можете удалять свои сообщения
    Вы не можете голосовать в опросах
    Вы не можете прикреплять файлы к сообщениям
    Вы можете скачивать файлы