Ссылка на приватное зеркало нашего сайта всего за 1$. Внимание количество ограничено!!!

2 сезон

iTunes

iTunes

1

iTunes

iTunes

iTunes

WEBRip

iTunes

30
pack

Вам бонус

ВАЖНО

!!Акция!!

Alien_RageХит недели

RePack

Horizon Zero Dawn

ИГРА 18+

pack

RePack

jed

!!Акция!!

Alien_Rage

RePack

fifa19

RePack

Assassins Creed: Odyssey

RePack

NEED FOR SPEED™ PAYBACK

4 сезон

9 сезон

Бесстыжие 9 сезон

Все сериалы

все сериалы на PB.wtf

RePack

FAR CRY 5
  

Зелёные коты / Rohelised kassid (Андрес Пуустусмаа) [2017, драма, WEB-DL 1080p] [iTunes] piratbit.pw

Зелёные коты через торрент piratbit.pw

Размер: 4.01 GB | Добавлен: 9 мес. назад | Торрент скачан:29 раз
Скачать  

11-12-2019 17:14 Зелёные коты Скачать торрент  

Зелёные коты / Rohelised kassid
Год выпуска: 2017
Страна: Эстония, Россия
Жанр: драма
Продолжительность: 01:37:15
Перевод: Не требуется | iTunes
Примечание: Эстонская речь переведена русскими субтитрами (вшитыми)
Субтитры: Russian (вшитые)

Режиссер: Андрес Пуустусмаа

rating

В ролях: Тону Карк, Сергей Маковецкий, Кирилл Кяро, Юри Аарма, Лииса Айбель, Юри Альпертен, Аго Андерсон, Ренке Андрес, Тоомас Ария, Кулли Ару, Юлле Бернхард

Описание: Два старых жулика, Маркус и Эдуард, которые провели большую часть своей жизни за стенами тюрьмы, выходят на волю. Мир снаружи изменился, и вот они, движимые прошлыми планами и мечтами, желают изменить свою жизнь. Всё происходящее с ними - новая реальность, препятствия и абсурдные ситуации, в которые они попадают - выбивает их из колеи..

Качество: WEB-DL 1080p
Формат: MKV

Видео: MPEG-4 AVC, 5120 Кбит/с, 1920x856
Аудио: Русский (AC3, 6 ch, 384 Кбит/с)
скриншот  скриншот  скриншот  скриншот  

General
Unique ID : 247437512591278736297419521181865740855 (0xBA26BB42B1BB7176B2274B4279E00A37)
Complete name : Zelenyie.kotyi.2017.WEB-DL.1080p.ELEKTRI4KA.UNIONGANG.mkv
Format : Matroska
Format version : Version 4
File size : 4.01 GiB
Duration : 1 h 44 min
Overall bit rate : 5 501 kb/s
Encoded date : UTC 2019-12-10 20:16:18
Writing application : mkvmerge v8.3.0 ('Over the Horizon') 64bit
Writing library : libebml v1.3.1 + libmatroska v1.4.2

Video
ID : 1
Format : AVC
Format/Info : Advanced Video Codec
Format profile : High@L4
Format settings : CABAC / 4 Ref Frames
Format settings, CABAC : Yes
Format settings, Reference frames : 4 frames
Codec ID : V_MPEG4/ISO/AVC
Duration : 1 h 44 min
Bit rate : 5 120 kb/s
Width : 1 920 pixels
Height : 856 pixels
Display aspect ratio : 2.25:1
Frame rate mode : Constant
Frame rate : 25.000 FPS
Color space : YUV
Chroma subsampling : 4:2:0
Bit depth : 8 bits
Scan type : Progressive
Bits/(Pixel*Frame) : 0.125
Stream size : 3.73 GiB (93%)
Title : iTunes (ELEKTRI4KA.UNIONGANG)
Writing library : x264 core 148
Encoding settings : cabac=1 / ref=3 / deblock=1:0:0 / analyse=0x3:0x113 / me=hex / subme=7 / psy=1 / psy_rd=1.00:0.00 / mixed_ref=1 / me_range=16 / chroma_me=1 / trellis=1 / 8x8dct=1 / cqm=0 / deadzone=21,11 / fast_pskip=1 / chroma_qp_offset=-2 / threads=27 / lookahead_threads=4 / sliced_threads=0 / nr=0 / decimate=1 / interlaced=0 / bluray_compat=0 / constrained_intra=0 / bframes=6 / b_pyramid=2 / b_adapt=1 / b_bias=0 / direct=1 / weightb=1 / open_gop=0 / weightp=2 / keyint=50 / keyint_min=26 / scenecut=0 / intra_refresh=0 / rc_lookahead=40 / rc=2pass / mbtree=1 / bitrate=5120 / ratetol=1.0 / qcomp=0.60 / qpmin=0 / qpmax=69 / qpstep=4 / cplxblur=20.0 / qblur=0.5 / vbv_maxrate=7680 / vbv_bufsize=20480 / nal_hrd=none / filler=0 / ip_ratio=1.40 / aq=1:1.00
Language : Russian
Default : Yes
Forced : No

Audio
ID : 2
Format : AC-3
Format/Info : Audio Coding 3
Commercial name : Dolby Digital
Codec ID : A_AC3
Duration : 1 h 44 min
Bit rate mode : Constant
Bit rate : 384 kb/s
Channel(s) : 6 channels
Channel layout : L R C LFE Ls Rs
Sampling rate : 48.0 kHz
Frame rate : 31.250 FPS (1536 SPF)
Bit depth : 16 bits
Compression mode : Lossy
Stream size : 287 MiB (7%)
Title : iTunes (ELEKTRI4KA.UNIONGANG)
Language : Russian
Service kind : Complete Main
Default : Yes
Forced : No

piratbit.pw



Скачать Зелёные коты через торрент https://a.radikal.ru/a37/1912/db/4b8482e8278a.png Скачать фильм Зелёные коты через торрент бесплантно в хорошем качестве Описание: Два старых жулика, Маркус и Эдуард, которые провели большую часть своей жизни за стенами тюрьмы, выходят на волю. Мир снаружи ... 10 10 8
Торрент: Зарегистрирован [2019-12-11 17:14] · скачан: 29 раз
Статус: √ проверено
Размер: 4.01 GB
Как cкачать? Как скачать Зелёные коты через торрент | qTorrent

28-11-2019 20:33  

Отключить всю рекламу на сайте

    Дорогой пользователь! Огромная просьба, поблагодарите релизера, оцените раздачу и оставьте свои комментарий, если Вы скачали Зелёные коты через торрент бесплатно! Внесите свою лепту в развитие PiratBit!
    Комментировать посты могут только пользователи прошедшие не сложную регистрацию
    Показать сообщения:    

    Зелёные коты через торрент
    Скачать бесплатно Зелёные коты
    Зелёные коты скачать торрент
    Зелёные коты смотреть онлайн
    Cкачать фильм Зелёные коты бесплатно
    Зелёные коты скачать торрент в хорошем качестве
    Зелёные коты смотреть онлайн бесплатно в хорошем качестве


    Вы не можете начинать темы
    Вы не можете отвечать на сообщения
    Вы не можете редактировать свои сообщения
    Вы не можете удалять свои сообщения
    Вы не можете голосовать в опросах
    Вы не можете прикреплять файлы к сообщениям
    Вы можете скачивать файлы