Ссылка на приватное зеркало нашего сайта всего за 1$. Внимание количество ограничено!!!

2 сезон

iTunes

1 сезон

1

2 сезон

2 сезон

iTunes

1 сезон

RePack

30

Ultimate

ВАЖНО

ИГРА 18+

pack

RePack

MK11
pack

Забери бонус

RePack

jed

!!Акция!!

Alien_Rage

RePack

fifa19

RePack

Assassins Creed: Odyssey

RePack

NEED FOR SPEED™ PAYBACK

4 сезон

9 сезон

Бесстыжие 9 сезон

Все сериалы

все сериалы на PB.wtf

RePack

FAR CRY 5
  

Соблазн / Любовь по Фрейду / Sibyl (Жюстин Трие) [2019, триллер, драма, BDRip-AVC] DUB [iTunes] piratbit.pw

Соблазн через торрент piratbit.pw

Размер: 1.55 GB | Добавлен: 11 мес. назад | Торрент скачан:98 раз
Скачать  

09-12-2019 18:37 Соблазн Скачать торрент  

Соблазн / Любовь по Фрейду / Sibyl
Год выпуска: 2019
Страна: Франция, Бельгия
Студия: Auvergne Rhône-Alpes Cinéma
Жанр: триллер, драма
Продолжительность: 01:40:56
Перевод: Профессиональный многоголосый | iTunes
Субтитры: отсутствуют

Режиссер: Жюстин Трие

rating

В ролях: Виржини Эфира, Адель Экзаркопулос, Гаспар Ульель, Сандра Хюллер, Лор Калами, Нильс Шнайдер, Поль Ами, Артур Харари, Адриан Беллемар, Джин Арра-Беллангер

Описание: Сибил - опытная и успешная женщина-психотерапевт, желающая отказаться от практики, чтобы воплотить давнее желание написать книгу. В тот момент, когда ей будет так нужно вдохновение, рядом окажется юная актриса Марго, ищущая помощи и поддержки. Сибил, очарованная новой пациенткой, будет всё глубже погружаться в чужую историю, не замечая, как её собственная жизнь перевернётся с ног на голову.

Качество: BDRip-AVC
Формат: MKV

Видео: 1024x428 (2.40:1), 23,976 fps, x264 ~1 821 kbps avg, 0.173 bit/pixel
Аудио: 48 kHz, AC3 Dolby Digital, 3/2 (L,C,R,l,r) + LFE ch, ~384.00 kbps avg | RUS (iTunes)
скриншот  скриншот  скриншот  скриншот  скриншот  

Общее
Уникальный идентификатор : 31975215102987156822148631531870949093 (0x180E33D217ABBCFF46A993384B2F0EE5)
Полное имя : F:\OlLanDGroup\Sibyl.2019.BDRip(AVC).OlLanDGroup.mkv
Формат : Matroska
Версия формата : Version 4 / Version 2
Размер файла : 1,55 Гбайт
Продолжительность : 1 ч. 40 м.
Общий поток : 2203 Кбит/сек
Название фильма : Sibyl.2019 #TorpedoUK#
Дата кодирования : UTC 2019-12-09 18:07:20
Программа кодирования : mkvmerge v29.0.0 ('Like It Or Not') 64-bit
Библиотека кодирования : libebml v1.3.6 + libmatroska v1.4.9

Видео
Идентификатор : 1
Формат : AVC
Формат/Информация : Advanced Video Codec
Профиль формата : High@L4.1
Параметр CABAC формата : Да
Параметр ReFrames формата : 10 кадров
Идентификатор кодека : V_MPEG4/ISO/AVC
Продолжительность : 1 ч. 40 м.
Битрейт : 1821 Кбит/сек
Ширина : 1024 пикселя
Высота : 428 пикселей
Соотношение сторон : 2,40:1
Режим частоты кадров : Постоянный
Частота кадров : 23,976 (24000/1001) кадра/сек
Цветовое пространство : YUV
Субдискретизация насыщенности : 4:2:0
Битовая глубина : 8 бит
Тип развёртки : Прогрессивная
Бит/(Пиксели*Кадры) : 0.173
Размер потока : 1,28 Гбайт (82%)
Библиотека кодирования : x264 core 146 r2538 121396c
Настройки программы : cabac=1 / ref=10 / deblock=1:-3:-3 / analyse=0x3:0x113 / me=umh / subme=11 / psy=1 / psy_rd=0.97:0.05 / mixed_ref=1 / me_range=48 / chroma_me=1 / trellis=2 / 8x8dct=1 / cqm=0 / deadzone=21,11 / fast_pskip=1 / chroma_qp_offset=-6 / threads=6 / lookahead_threads=1 / sliced_threads=0 / nr=0 / decimate=1 / interlaced=0 / bluray_compat=0 / constrained_intra=0 / bframes=11 / b_pyramid=2 / b_adapt=2 / b_bias=0 / direct=3 / weightb=1 / open_gop=0 / weightp=2 / keyint=240 / keyint_min=23 / scenecut=40 / intra_refresh=0 / rc_lookahead=40 / rc=2pass / mbtree=0 / bitrate=1821 / ratetol=1.0 / qcomp=0.60 / qpmin=0 / qpmax=69 / qpstep=4 / cplxblur=20.0 / qblur=0.5 / vbv_maxrate=50000 / vbv_bufsize=62500 / nal_hrd=none / filler=0 / ip_ratio=1.40 / pb_ratio=1.30 / aq=1:1.00
Язык : English
Default : Да
Forced : Нет

Аудио
Идентификатор : 2
Формат : AC-3
Формат/Информация : Audio Coding 3
Расширение режима : CM (complete main)
Параметр Endianness формата : Big
Идентификатор кодека : A_AC3
Продолжительность : 1 ч. 40 м.
Вид битрейта : Постоянный
Битрейт : 384 Кбит/сек
Каналы : 6 каналов
Расположение каналов : Front: L C R, Side: L R, LFE
Частота : 48,0 КГц
Частота кадров : 31,250 кадров/сек (1536 spf)
Битовая глубина : 16 бит
Метод сжатия : С потерями
Размер потока : 277 Мбайт (17%)
Заголовок : MVO [iTunes]
Язык : Russian
Default : Да
Forced : Нет

Меню
00:00:00.000 : :Глава 01
00:09:35.491 : :Глава 02
00:16:29.071 : :Глава 03
00:25:48.838 : :Глава 04
00:34:50.838 : :Глава 05
00:42:10.236 : :Глава 06
00:51:20.994 : :Глава 07
01:00:41.846 : :Глава 08
01:10:11.999 : :Глава 09
01:18:50.934 : :Глава 10
01:30:40.643 : :Глава 11
01:37:02.316 : :Глава 12

piratbit.pw



Скачать Соблазн через торрент https://b.radikal.ru/b07/1912/b0/9ffbf1a5fff7.jpg Скачать фильм Соблазн через торрент бесплантно в хорошем качестве Описание: Сибил - опытная и успешная женщина-психотерапевт, желающая отказаться от практики, чтобы воплотить давнее желание написать книгу. ... 10 10 3
Торрент: Зарегистрирован [2019-12-09 18:37] · скачан: 98 раз
Статус: √ проверено
Размер: 1.55 GB
Как cкачать? Как скачать Соблазн через торрент | qTorrent

% Раздел Тема Автор DL S | L
Фильмы 2019-2020 [DVDrip, WEB-DLRip, HDrip] (DUB, MVO) [ 1.42 GB ] Соблазн / Любовь по Фрейду / Sibyl [2019 BDRip] MVO Twi7ter Скачать
1 | 0
Фильмы (WEB-DL 720p, 1080p) [ 3.14 GB ] Соблазн / Любовь по Фрейду / Sibyl [2019 WEB-DL 720p] MVO bober100 Скачать
1 | 0
Фильмы (WEB-DL 720p, 1080p) [ 3.62 GB ] Соблазн / Любовь по Фрейду / Sibyl [2019 WEB-DL 1080p] MVO bober100 Скачать
1 | 0
Фильмы 2019-2020 [DVDrip, WEB-DLRip, HDrip] (DUB, MVO) [ 1.42 GB ] Соблазн / Любовь по Фрейду / Sibyl [2019 BDRip] MVO bober100 Скачать
2 | 0

28-11-2019 20:33  

Отключить всю рекламу на сайте

    Дорогой пользователь! Огромная просьба, поблагодарите релизера, оцените раздачу и оставьте свои комментарий, если Вы скачали Соблазн через торрент бесплатно! Внесите свою лепту в развитие PiratBit!
    Комментировать посты могут только пользователи прошедшие не сложную регистрацию
    Показать сообщения:    

    Соблазн через торрент
    Скачать бесплатно Соблазн
    Соблазн скачать торрент
    Соблазн смотреть онлайн
    Cкачать фильм Соблазн бесплатно
    Соблазн скачать торрент в хорошем качестве
    Соблазн смотреть онлайн бесплатно в хорошем качестве


    Вы не можете начинать темы
    Вы не можете отвечать на сообщения
    Вы не можете редактировать свои сообщения
    Вы не можете удалять свои сообщения
    Вы не можете голосовать в опросах
    Вы не можете прикреплять файлы к сообщениям
    Вы можете скачивать файлы