Ссылка на приватное зеркало нашего сайта всего за 1$. Внимание количество ограничено!!!

2 сезон

iTunes

1 сезон

1

2 сезон

2 сезон

iTunes

1 сезон

RePack

30

Ultimate

ВАЖНО

ИГРА 18+

pack

RePack

MK11
pack

Забери бонус

RePack

jed

!!Акция!!

Alien_Rage

RePack

fifa19

RePack

Assassins Creed: Odyssey

RePack

NEED FOR SPEED™ PAYBACK

4 сезон

9 сезон

Бесстыжие 9 сезон

Все сериалы

все сериалы на PB.wtf

RePack

FAR CRY 5
  

Ирландец / The Irishman (Мартин Скорсезе) [2019, драма, криминал, биография, WEB-DLRip-AVC] MVO [Jaskier], AVO [Сербин] - ExKinoRay piratbit.pw

Ирландец через торрент piratbit.pw

Раздают: 25 [ 0 KB/s ]
Размер: 4.06 GB | Добавлен: 11 мес. назад | Торрент скачан:651 раз
Скачать  

09-12-2019 01:18 Ирландец Скачать торрент  

Название: Ирландец
Оригинальное название: The Irishman
Год выпуска: 2019
Жанр: Драма, криминал, биография
Режиссер: Мартин Скорсезе
В ролях: Роберт Де Ниро, Анна Пакуин, Аль Пачино, Джо Пеши, Алекса Палладино, Джесси Племонс, Харви Кейтель, Бобби Каннавейл, Стивен Грэм, Джек Хьюстон

Описание: Фрэнк Ширан, носивший кличку Ирландец был, на первый взгляд, обычным американским обывателем. Примерный семьянин с женой и четырьмя детьми, бывший ветеран войны, любитель умеренной выпивки. Но под внешней маской скрывался человек, родившийся в Ирландии в семье с суровым отцом, помешанным на боксе. Человек, который провел на войне столько дней, что разучился нормально спать и нормально жить. Его тяга к спиртному была прямым следствием посттравматического синдрома, от которого бывшего солдата не могли спасти никакие семейные радости. Именно этот человек на старости лет сделает признание в том, что убил свыше 30 важных представителей мафии.

rating

Страна: США
Студия: Fabrica de Cine, STX Entertainment, Sikelia Productions, Tribeca Productions
Продолжительность: 03:29:26
Перевод: Профессиональный (многоголосый закадровый) | Jaskier
Авторский (одноголосый закадровый) | Ю.Сербин

Формат: MKV
Качество: BDRip-AVC
Видео: MPEG-4 AVC, 1024x552 (1.85:1), 24.000 fps, 1875 Kbps, 0.138 bit/pixel
Аудио 1: 48 kHz, AC3, 5.1, 448 Kbps | Jaskier | RUS |
Аудио 2: 48 kHz, AC3, 5.1, 448 Kbps | Ю.Сербин | RUS |
Субтитры: Русские (Forced, full), английские
• Дорожка №2 получена наложением чистого голоса на центр декодированного E-AC3 5.1, работа со звуком - drobovik.
• Перевод Ю. Сербина осуществлен в рамках сервиса "Краудфандинг" совместно с ресурсами e180 и TeamHD.
Спонсоры:
zeliboba15, insect13, iogan111, kikoru1, ochkarik1, hzdaun, apollion2007, tsiboul, Kedens, areal205Y, random_hero, barthess, marfakrysa, lknsd, ClockworkOrange2001, Beach, CuMoH, Darikstepan, shurick9303, soprano79, kost1985
axl-dr, empireisky, Semvlk, литти_07, Evromaster, planshetist, chontvari, luka69, Roman Lee, barvinok13, drobovik, hdrmv12, Dyermaker, ZeDOK, oleg-k, Pro_Rock_, kiruxa-k, Cyberclean, Wolf_Larsen, Shumway, lazarus2, perrelkin, Ken, Симоннс, GummyBe@r, maximus10-99, olegsoleg, Palmer Eldritch, Iceman, Nadoelo, miracle, Gross1978, Rayan, dir, masta, d0ber.maNN, Денис, fly32, Volshebnik, vik19662007, saenwert, Dervish, Martyr, Gouzer, Ramis, SilverBeast
tambov68, exact, zlodei24, Render71, Valent80, Lawliet13, lagerbeck, goriathid, alexeycezar, digitus, Superbizho, Serenkiy, mishka, KerkP, banan87, dorkid, ntktuf, zulku, ilfat1975, hodgson, Asmodai, neveronizuka, MamonTSan, igrok2012
General
Unique ID : 247379428232297024418094496503106945964 (0xBA1B8B7B03A133699CB84EB8DD7CC3AC)
Complete name : F:\The.Irishman.2019.2xRus.NF.WEB-DL.AVC.ExKinoRay.mkv
Format : Matroska
Format version : Version 2
File size : 4.06 GiB
Duration : 3 h 29 min
Overall bit rate : 2 772 kb/s
Movie name : The Irishman 2019 from ExKinoRay
Encoded date : UTC 2019-12-08 23:43:31
Writing application : mkvmerge v5.6.0 ('Kenya Kane') built on May 27 2012 16:44:04
Writing library : libebml v1.2.3 + libmatroska v1.3.0

Video
ID : 1
Format : AVC
Format/Info : Advanced Video Codec
Format profile : High@L4.1
Format settings, CABAC : Yes
Format settings, ReFrames : 11 frames
Codec ID : V_MPEG4/ISO/AVC
Duration : 3 h 29 min
Bit rate : 1 875 kb/s
Width : 1 024 pixels
Height : 552 pixels
Display aspect ratio : 1.85:1
Frame rate mode : Constant
Frame rate : 24.000 FPS
Color space : YUV
Chroma subsampling : 4:2:0
Bit depth : 8 bits
Scan type : Progressive
Bits/(Pixel*Frame) : 0.138
Stream size : 2.66 GiB (66%)
Title : Enigma
Writing library : x264 core 152 r2851 ba24899
Encoding settings : cabac=1 / ref=11 / deblock=1:-2:-2 / analyse=0x3:0x113 / me=umh / subme=10 / psy=1 / psy_rd=1.00:0.05 / mixed_ref=1 / me_range=32 / chroma_me=1 / trellis=2 / 8x8dct=1 / cqm=0 / deadzone=21,11 / fast_pskip=0 / chroma_qp_offset=-3 / threads=12 / lookahead_threads=3 / sliced_threads=0 / nr=0 / decimate=0 / interlaced=0 / bluray_compat=0 / constrained_intra=0 / bframes=12 / b_pyramid=2 / b_adapt=2 / b_bias=0 / direct=3 / weightb=1 / open_gop=0 / weightp=2 / keyint=240 / keyint_min=24 / scenecut=40 / intra_refresh=0 / rc=2pass / mbtree=0 / bitrate=1875 / ratetol=1.0 / qcomp=0.60 / qpmin=0 / qpmax=51 / qpstep=4 / cplxblur=20.0 / qblur=0.5 / ip_ratio=1.40 / pb_ratio=1.30 / aq=1:1.00
Language : English
Default : Yes
Forced : No
Color range : Limited
Color primaries : BT.709
Transfer characteristics : BT.709
Matrix coefficients : BT.709

Audio #1
ID : 2
Format : AC-3
Format/Info : Audio Coding 3
Mode extension : CM (complete main)
Format settings, Endianness : Big
Codec ID : A_AC3
Duration : 3 h 29 min
Bit rate mode : Constant
Bit rate : 448 kb/s
Channel(s) : 6 channels
Channel positions : Front: L C R, Side: L R, LFE
Sampling rate : 48.0 kHz
Frame rate : 31.250 FPS (1536 spf)
Compression mode : Lossy
Stream size : 671 MiB (16%)
Title : MVO (Jaskier)
Language : Russian
Default : Yes
Forced : No

Audio #2
ID : 3
Format : AC-3
Format/Info : Audio Coding 3
Mode extension : CM (complete main)
Format settings, Endianness : Big
Codec ID : A_AC3
Duration : 3 h 29 min
Bit rate mode : Constant
Bit rate : 448 kb/s
Channel(s) : 6 channels
Channel positions : Front: L C R, Side: L R, LFE
Sampling rate : 48.0 kHz
Frame rate : 31.250 FPS (1536 spf)
Compression mode : Lossy
Stream size : 671 MiB (16%)
Title : AVO (Serbin)
Language : Russian
Default : No
Forced : No

Text #1
ID : 4
Format : UTF-8
Codec ID : S_TEXT/UTF8
Codec ID/Info : UTF-8 Plain Text
Title : Forced
Language : Russian
Default : Yes
Forced : No

Text #2
ID : 5
Format : UTF-8
Codec ID : S_TEXT/UTF8
Codec ID/Info : UTF-8 Plain Text
Title : Full
Language : Russian
Default : No
Forced : No

Text #3
ID : 6
Format : UTF-8
Codec ID : S_TEXT/UTF8
Codec ID/Info : UTF-8 Plain Text
Language : English
Default : No
Forced : No


Релиз от:

Автор релиза: piratbit.pw



Скачать Ирландец через торрент https://d.radikal.ru/d43/1911/5a/ae86a7778bdf.jpg Скачать фильм Ирландец через торрент бесплантно в хорошем качестве Описание: Фрэнк Ширан, носивший кличку Ирландец был, на первый взгляд, обычным американским обывателем. Примерный семьянин с женой и ... 9.9 10 7
Info! Золотая раздача, скачанное не засчитывается.
Торрент: Зарегистрирован [2019-12-09 01:18] · скачан: 651 раз
Статус: √ проверено
Размер: 4.06 GB
Как cкачать? Как скачать Ирландец через торрент | qTorrent

% Раздел Тема Автор DL S | L
Фильмы 2019-2020 [DVDrip, WEB-DLRip, HDrip] (DUB, MVO) [ 3.4 GB ] Ирландец / The Irishman [2019 биография WEB-DLRip-AVC] DUB [Пифагор] - ExKinoRay Enigma2010 Скачать
75 | 0

28-11-2019 20:33  

Отключить всю рекламу на сайте

    Дорогой пользователь! Огромная просьба, поблагодарите релизера, оцените раздачу и оставьте свои комментарий, если Вы скачали Ирландец через торрент бесплатно! Внесите свою лепту в развитие PiratBit!
    Комментировать посты могут только пользователи прошедшие не сложную регистрацию
    Показать сообщения:    

    Ирландец через торрент
    Скачать бесплатно Ирландец
    Ирландец скачать торрент
    Ирландец смотреть онлайн
    Cкачать фильм Ирландец бесплатно
    Ирландец скачать торрент в хорошем качестве
    Ирландец смотреть онлайн бесплатно в хорошем качестве


    Вы не можете начинать темы
    Вы не можете отвечать на сообщения
    Вы не можете редактировать свои сообщения
    Вы не можете удалять свои сообщения
    Вы не можете голосовать в опросах
    Вы не можете прикреплять файлы к сообщениям
    Вы можете скачивать файлы