Ссылка на приватное зеркало нашего сайта всего за 1$. Внимание количество ограничено!!!

2 сезон

iTunes

iTunes

1

iTunes

iTunes

iTunes

WEBRip

iTunes

30
pack

Вам бонус

ВАЖНО

!!Акция!!

Alien_RageХит недели

RePack

Horizon Zero Dawn

ИГРА 18+

pack

RePack

jed

!!Акция!!

Alien_Rage

RePack

fifa19

RePack

Assassins Creed: Odyssey

RePack

NEED FOR SPEED™ PAYBACK

4 сезон

9 сезон

Бесстыжие 9 сезон

Все сериалы

все сериалы на PB.wtf

RePack

FAR CRY 5
  

Любовь прет-а-порте (Макс Нардари) [2017, Комедия, WEB-DL 1080p] [iTunes] piratbit.pw

Любовь прет-а-порте через торрент piratbit.pw

Размер: 3.15 GB | Добавлен: 9 мес. назад | Торрент скачан:55 раз
Скачать  

07-12-2019 14:24 Любовь прет-а-порте Скачать торрент  

Любовь прет-а-порте
Год выпуска: 2017
Страна: Россия Италия
Производство: ОДА-Фильм
Жанр: Комедия
Продолжительность: 01:21:55
Перевод: Не требуется | iTunes
Субтитры: отсутствуют

Режиссер: Макс Нардари

rating

В ролях: Ольга Погодина, Андреа Прети, Лариса Удовиченко, Джанкарло Джаннини, Паоло Контичини, Нино Фрассика, Влад Лисовец, М. Химичев

Описание: Он — знойный римский ловелас, избалованный сынок богатого папочки. Она — красавица, одинокая москвичка, которая всю жизнь ждала того, единственного. Он всю жизнь флиртовал, играл, блефовал. Она трудилась, презирая ложь и компромиссы. Одна короткая встреча в Риме запутала их жизни в яркий клубок надежд, обломов и страсти. Он стал для неё тем, кого она готова была полюбить, но не могла… Она стала для него той, ради которой стоило лгать, как никогда в жизни… А чего не сделаешь ради любви..?

Качество: WEB-DL 1080p
Формат: MKV

Видео: 1920x1040 (16:9), 25.000 fps, MPEG-4 AVC ~5 011 kbps avg
Аудио: 48 kHz, AC3 Dolby Digital, 3/2 (L,C,R,l,r) + LFE ch, ~384 kbps
скриншот  скриншот  скриншот  скриншот  

Общее
Уникальный идентификатор : 233770589358537287877454189031903205844 (0xAFDE93EBC44D2AACB107820A136C19D4)
Полное имя : D:\Lubov.v.Pretaport.2017.WEB-DL.1080p.mkv
Формат : Matroska
Версия формата : Version 4 / Version 2
Размер файла : 3,15 Гбайт
Продолжительность : 1 ч. 21 м.
Общий поток : 5504 Кбит/сек
Дата кодирования : UTC 2017-03-27 17:48:00
Программа кодирования : mkvmerge v8.3.0 ('Over the Horizon') 64bit
Библиотека кодирования : libebml v1.3.1 + libmatroska v1.4.2

Видео
Идентификатор : 1
Формат : AVC
Формат/Информация : Advanced Video Codec
Профиль формата : High@L4
Параметр CABAC формата : Да
Параметр RefFrames формата : 4 кадра
Идентификатор кодека : V_MPEG4/ISO/AVC
Продолжительность : 1 ч. 21 м.
Битрейт : 5011 Кбит/сек
Ширина : 1920 пикселей
Высота : 1040 пикселей
Соотношение сторон : 1,85:1
Режим частоты кадров : Постоянный
Частота кадров : 25,000 кадров/сек
Цветовое пространство : YUV
Субдискретизация насыщенности : 4:2:0
Битовая глубина : 8 бит
Тип развёртки : Прогрессивная
Бит/(Пиксели*Кадры) : 0.100
Размер потока : 2,87 Гбайт (91%)
Язык : English
Default : Да
Forced : Нет
Цветовой диапазон : Limited
Основные цвета : BT.709
Характеристики трансфера : BT.709
Коэффициенты матрицы : BT.709

Аудио
Идентификатор : 2
Формат : AC-3
Формат/Информация : Audio Coding 3
Расширение режима : CM (complete main)
Параметр Endianness формата : Big
Идентификатор кодека : A_AC3
Продолжительность : 1 ч. 21 м.
Вид битрейта : Постоянный
Битрейт : 384 Кбит/сек
Каналы : 6 каналов
Расположение каналов : Front: L C R, Side: L R, LFE
Частота : 48,0 КГц
Частота кадров : 31,250 кадров/сек (1536 spf)
Метод сжатия : С потерями
Размер потока : 225 Мбайт (7%)
Язык : Russian
Default : Да
Forced : Нет

Меню
00:00:00.000 : en:Глава 1
00:05:57.320 : en:Глава 2
00:13:44.920 : en:Глава 3
00:20:23.400 : en:Глава 4
00:26:22.000 : en:Глава 5
00:31:37.600 : en:Глава 6
00:36:19.040 : en:Глава 7
00:41:54.120 : en:Глава 8
00:49:14.360 : en:Глава 9
00:55:44.680 : en:Глава 10
01:02:36.960 : en:Глава 11
01:08:40.400 : en:Глава 12
01:13:26.000 : en:Глава 13
01:18:10.400 : en:Глава 14

piratbit.pw



Скачать Любовь прет-а-порте через торрент http://img11.lostpic.net/2017/03/03/2e3a08cbb3c9ab957c6050031dd62a2f.png Скачать фильм Любовь прет-а-порте через торрент бесплантно в хорошем качестве Описание: Он — знойный римский ловелас, избалованный сынок богатого папочки. Она — красавица, одинокая москвичка, которая всю жизнь ждала ... 10 10 10
Торрент: Зарегистрирован [2019-12-07 14:24] · скачан: 55 раз
Статус: √ проверено
Размер: 3.15 GB
Как cкачать? Как скачать Любовь прет-а-порте через торрент | qTorrent

% Раздел Тема Автор DL S | L
Наши фильмы (HD, WEB-DL 720p, 1080p) [ 2.51 GB ] Любовь прет-а-порте [2017 WEB-DL 720p] bober100 Скачать
1 | 0
Наши новые фильмы 2017 [ 1.36 GB ] Любовь прет-а-порте [2017 WEB-DLRip-AVC] от ExKinoRay Enigma2010 Скачать
1 | 0
Наши новые фильмы 2017 [ 1.46 GB ] Любовь прет-а-порте [2017 WEB-DLRip ] oleg8 Скачать
1 | 0

28-11-2019 20:33  

Отключить всю рекламу на сайте

    Дорогой пользователь! Огромная просьба, поблагодарите релизера, оцените раздачу и оставьте свои комментарий, если Вы скачали Любовь прет-а-порте через торрент бесплатно! Внесите свою лепту в развитие PiratBit!
    Комментировать посты могут только пользователи прошедшие не сложную регистрацию
    Показать сообщения:    

    Любовь прет-а-порте через торрент
    Скачать бесплатно Любовь прет-а-порте
    Любовь прет-а-порте скачать торрент
    Любовь прет-а-порте смотреть онлайн
    Cкачать фильм Любовь прет-а-порте бесплатно
    Любовь прет-а-порте скачать торрент в хорошем качестве
    Любовь прет-а-порте смотреть онлайн бесплатно в хорошем качестве


    Вы не можете начинать темы
    Вы не можете отвечать на сообщения
    Вы не можете редактировать свои сообщения
    Вы не можете удалять свои сообщения
    Вы не можете голосовать в опросах
    Вы не можете прикреплять файлы к сообщениям
    Вы можете скачивать файлы