Ссылка на приватное зеркало нашего сайта всего за 1$. Внимание количество ограничено!!!

2 сезон

iTunes

iTunes

1

iTunes

iTunes

iTunes

WEBRip

iTunes

30
pack

Вам бонус

ВАЖНО

!!Акция!!

Alien_RageХит недели

RePack

Horizon Zero Dawn

ИГРА 18+

pack

RePack

jed

!!Акция!!

Alien_Rage

RePack

fifa19

RePack

Assassins Creed: Odyssey

RePack

NEED FOR SPEED™ PAYBACK

4 сезон

9 сезон

Бесстыжие 9 сезон

Все сериалы

все сериалы на PB.wtf

RePack

FAR CRY 5
  

Эверест / Abominable (Джилл Калтон, Тодд Вилдерман) [2019, Мультфильм, фэнтези, комедия, приключения, семейный, UHD BDRemux 2160p] DUB [Лицензия] piratbit.pw

Эверест через торрент piratbit.pw

Размер: 51.69 GB | Добавлен: 5 мес. 23 д. назад | Торрент скачан:15 раз
Скачать  

06-12-2019 16:49 Эверест Скачать торрент  

Эверест / Abominable
Год выпуска: 2019
Страна: Китай, США
Студия: DreamWorks Animation, Pearl Studio
Жанр: Мультфильм, фэнтези, комедия, приключения, семейный
Продолжительность: 01:37:13
Перевод: Дублированный | Лицензия
Субтитры: Русские (2 х Forced, full), английские

Режиссер: Джилл Калтон, Тодд Вилдерман

rating

В ролях: Хлоя Беннет, Альберт Цай, Тензинг Норгай Трэйнор, Джозеф Иццо, Эдди Иззард, Сара Полсон, Цай Чинь, Мишель Вонг, Рич Дитль, Джеймс Хонг

Описание: Путешествие на самую высокую точку мира? Что может быть круче! Так решает Лу, когда случайно находит огромное, но очень милое чудовище посреди шумного мегаполиса. Пусть их преследуют ученые из сверхсекретной лаборатории, зато её новый друг умеет смешить и творить чудеса. Лу уверена, что поможет дружелюбному йети вернуться домой - на Эверест.

Качество: UHD BDRemux 2160p
Формат: MKV

Видео: 3840x2160 at 23.976 fps, MPEG-H HEVC HDR Video, 71900 kbps avg
Аудио #01: 48 kHz, AC3, 5.1, 640 Kbps | Дублированный | RUS |
Аудио #02: 48 kHz, TrueHD, 7.1, 4374 Kbps | Оригинал | ENG |
Аудио #03: 48 kHz, AC3, 5.1, 448 Kbps | Оригинал | ENG |
скриншот  скриншот  скриншот  скриншот  скриншот  

General
Unique ID : 194994763332239104960233627529699958852 (0x92B2A018400233E75CE47E0D3484A044)
Complete name : E:Video111Abominable.2019.BDREMUX.2160p.HDR.seleZen.mkv
Format : Matroska
Format version : Version 4
File size : 51.7 GiB
Duration : 1 h 37 min
Overall bit rate mode : Variable
Overall bit rate : 76.1 Mb/s
Movie name : Abominable 2019 from селезень
Encoded date : UTC 2020-04-03 01:57:22
Writing application : mkvmerge v40.0.0 ('Old Town Road + Pony') 64-bit
Writing library : libebml v1.3.9 + libmatroska v1.5.2

Video
ID : 1
Format : HEVC
Format/Info : High Efficiency Video Coding
Format profile : Main 10@L5.1@High
HDR format : SMPTE ST 2094 App 4, Version 1, HDR10+ Profile B compatible
Codec ID : V_MPEGH/ISO/HEVC
Duration : 1 h 37 min
Bit rate : 71.9 Mb/s
Width : 3 840 pixels
Height : 2 160 pixels
Display aspect ratio : 16:9
Frame rate mode : Constant
Frame rate : 23.976 (24000/1001) FPS
Color space : YUV
Chroma subsampling : 4:2:0 (Type 2)
Bit depth : 10 bits
Bits/(Pixel*Frame) : 0.362
Stream size : 48.8 GiB (94%)
Writing library : ATEME Titan File 3.9.0 (4.9.0.0)
Language : English
Default : Yes
Forced : No
Color range : Limited
Color primaries : BT.2020
Transfer characteristics : PQ
Matrix coefficients : BT.2020 non-constant
Mastering display color pri : Display P3
Mastering display luminance : min: 0.0050 cd/m2, max: 1000 cd/m2
Maximum Content Light Level : 1003 cd/m2
Maximum Frame-Average Light : 145 cd/m2

Audio #1
ID : 2
Format : AC-3
Format/Info : Audio Coding 3
Commercial name : Dolby Digital
Codec ID : A_AC3
Duration : 1 h 37 min
Bit rate mode : Constant
Bit rate : 640 kb/s
Channel(s) : 6 channels
Channel layout : L R C LFE Ls Rs
Sampling rate : 48.0 kHz
Frame rate : 31.250 FPS (1536 SPF)
Compression mode : Lossy
Stream size : 445 MiB (1%)
Title : Dub [License]
Language : Russian
Service kind : Complete Main
Default : Yes
Forced : Yes

Audio #2
ID : 3
Format : MLP FBA 16-ch
Format/Info : Meridian Lossless Packing FBA with 16-channel presentation
Commercial name : Dolby TrueHD with Dolby Atmos
Codec ID : A_TRUEHD
Duration : 1 h 37 min
Bit rate mode : Variable
Bit rate : 3 049 kb/s
Maximum bit rate : 4 824 kb/s
Channel(s) : 8 channels
Channel layout : L R C LFE Ls Rs Lb Rb
Sampling rate : 48.0 kHz
Frame rate : 1 200.000 FPS (40 SPF)
Compression mode : Lossless
Stream size : 2.07 GiB (4%)
Title : Original
Language : English
Default : No
Forced : No
Number of dynamic objects : 11
Bed channel count : 1 channel
Bed channel configuration : LFE

Audio #3
ID : 4
Format : AC-3
Format/Info : Audio Coding 3
Commercial name : Dolby Digital
Codec ID : A_AC3
Duration : 1 h 37 min
Bit rate mode : Constant
Bit rate : 448 kb/s
Channel(s) : 6 channels
Channel layout : L R C LFE Ls Rs
Sampling rate : 48.0 kHz
Frame rate : 31.250 FPS (1536 SPF)
Compression mode : Lossy
Stream size : 312 MiB (1%)
Language : English
Service kind : Complete Main
Default : No
Forced : No

Text #1
ID : 5
Format : UTF-8
Codec ID : S_TEXT/UTF8
Codec ID/Info : UTF-8 Plain Text
Duration : 1 h 35 min
Bit rate : 0 b/s
Count of elements : 9
Stream size : 275 Bytes (0%)
Title : Forced [License]
Language : Russian
Default : Yes
Forced : Yes

Text #2
ID : 6
Format : UTF-8
Codec ID : S_TEXT/UTF8
Codec ID/Info : UTF-8 Plain Text
Duration : 1 h 23 min
Bit rate : 0 b/s
Count of elements : 9
Stream size : 325 Bytes (0%)
Title : Forced [seleZen]
Language : Russian
Default : No
Forced : Yes

Text #3
ID : 7
Format : UTF-8
Codec ID : S_TEXT/UTF8
Codec ID/Info : UTF-8 Plain Text
Duration : 1 h 25 min
Bit rate : 67 b/s
Count of elements : 998
Stream size : 42.3 KiB (0%)
Title : Full [by sub.Trader]
Language : Russian
Default : No
Forced : No

Text #4
ID : 8
Format : UTF-8
Codec ID : S_TEXT/UTF8
Codec ID/Info : UTF-8 Plain Text
Duration : 1 h 25 min
Bit rate : 46 b/s
Count of elements : 1175
Stream size : 29.0 KiB (0%)
Title : Full
Language : English
Default : No
Forced : No

Menu
00:00:00.000 : en:Глава 01
00:04:12.502 : en:Глава 02
00:09:11.551 : en:Глава 03
00:13:42.905 : en:Глава 04
00:16:14.265 : en:Глава 05
00:21:35.419 : en:Глава 06
00:25:03.127 : en:Глава 07
00:29:31.103 : en:Глава 08
00:33:58.119 : en:Глава 09
00:36:44.452 : en:Глава 10
00:41:53.678 : en:Глава 11
00:46:31.372 : en:Глава 12
00:50:42.998 : en:Глава 13
00:56:32.222 : en:Глава 14
01:01:41.197 : en:Глава 15
01:06:33.865 : en:Глава 16
01:11:45.092 : en:Глава 17
01:15:27.022 : en:Глава 18
01:20:42.212 : en:Глава 19
01:26:45.075 : en:Глава 20

piratbit.pw



Скачать Эверест через торрент https://img15.lostpic.net/2019/12/06/0415dd37c831d2b862d77b95e9e7b4af.jpg Скачать фильм Эверест через торрент бесплантно в хорошем качестве Описание: Путешествие на самую высокую точку мира? Что может быть круче! Так решает Лу, когда случайно находит огромное, но очень милое ... 9.6 10 7
Торрент: Зарегистрирован [2020-04-03 02:20] · скачан: 15 раз
Статус: √ проверено
Размер: 51.69 GB
Как cкачать? Как скачать Эверест через торрент | qTorrent

% Раздел Тема Автор DL S | L
Ultra HD (UHD: 2K, 4K, 8K) [ 88.44 GB ] Эверест / Abominable [2019 Мультфильм UHD Blu-Ray EUR 2160p] DUB [] bober100 Скачать
1 | 0
Зарубежные Мультфильмы (BDRip 1080p, 720p, Blu-ray, BD-Remux) [ 39.86 GB ] Эверест / Abominable [2019 Мультфильм Blu-ray EUR 1080p] DUB [] bober100 Скачать
1 | 0
3D Мультфильмы [ 9.02 GB ] Эверест 3Д / Abominable 3D [2019 Мультфильм BDRip 1080p ] DUB [] bober100 Скачать
2 | 0
Ultra HD (UHD: 2K, 4K, 8K) [ 8.16 GB ] Эверест / Abominable [2019 Мультфильм UHD BDRip 2160p] DUB [] bober100 Скачать
3 | 0
3D Мультфильмы [ 17.82 GB ] Эверест в 3Д / Abominable 3D [2019 мультфильм BDRip 1080p] OverUnder / Вертикальная стереопара serega768 Скачать
1 | 0
Иностранные мультфильмы [ 1.67 GB ] Эверест / Abominable [2019 Мультфильм BDRip-AVC] bober100 Скачать
3 | 0
Ultra HD (UHD: 2K, 4K, 8K) [ 15.75 GB ] Эверест / Abominable [2019 Мультфильм UHD BDRip 2160p ] DUB [] bober100 Скачать
1 | 1

28-11-2019 20:33  

Отключить всю рекламу на сайте

    Дорогой пользователь! Огромная просьба, поблагодарите релизера, оцените раздачу и оставьте свои комментарий, если Вы скачали Эверест через торрент бесплатно! Внесите свою лепту в развитие PiratBit!
    Комментировать посты могут только пользователи прошедшие не сложную регистрацию
    Показать сообщения:    

    Эверест через торрент
    Скачать бесплатно Эверест
    Эверест скачать торрент
    Эверест смотреть онлайн
    Cкачать фильм Эверест бесплатно
    Эверест скачать торрент в хорошем качестве
    Эверест смотреть онлайн бесплатно в хорошем качестве


    Вы не можете начинать темы
    Вы не можете отвечать на сообщения
    Вы не можете редактировать свои сообщения
    Вы не можете удалять свои сообщения
    Вы не можете голосовать в опросах
    Вы не можете прикреплять файлы к сообщениям
    Вы можете скачивать файлы