Ссылка на приватное зеркало всего за 1$. Внимание количество ограничено!!!

OK

1+1

iTunes

мы

OK

1

WEB-DLRip

Джокер

Пифагор

Ведьмак / The Witcher сериал

iTunes

ПШазам

ОК

Оно 2

iTunes

30
pack

Вам бонус

ВАЖНО

!!Акция!!

Alien_RageХит недели

RePack

Resident Evil 21

ИГРА 18+

pack

RePack

jed

RePack

fifa19

RePack

Assassins Creed: Odyssey

RePack

NEED FOR SPEED™ PAYBACK

4 сезон

9 сезон

Бесстыжие 9 сезон

Все сериалы

все сериалы на PB.wtf

RePack

FAR CRY 5
  

Викинги / Vikings / Сезоны: 6 / Серии: 1-8 из 20 (Киаран Доннелли, Кен Джиротти, Стивен Ст. Леджер) [2019, боевик, драма, мелодрама, военный, WEB-DLRip] MVO [AlexFilm] piratbit.pw

Викинги через торрент piratbit.pw

Раздают: 5 [ 766 KB/s ] Качают: 12 [ 717 KB/s ]
Размер: 4.97 GB | Добавлен: 17 ч. назад | Торрент скачан:5 раз
Скачать  

05-12-2019 17:47 Викинги Скачать торрент  

Викинги | Vikings
Год выпуска: 2019
Страна: Ирландия, Канада
Жанр: боевик, драма, мелодрама, военный
Продолжительность: ~ 00:45:00 серия
Перевод: Профессиональный (многоголосый) | AlexFilm
Субтитры: Отсутствуют

Режиссер: Киаран Доннелли, Кен Джиротти, Стивен Ст. Леджер

rating


В ролях: Алекс Хёг Андерсен, Кэти Монахэн, Фердия Уолш-Пило, Андрей Клод, Алисиа Агнесон, Люси Мартин, Ленн Кудрявицки, Джордан Патрик Смит, Кристи Динсмор, Данила Козловский, Кэтрин Уинник, Марко Лейт

Описание: Вольная интерпретация событий времен раннего Средневековья – экшн-драма, созданная на основе скандинавских саг сценаристом «Тюдоров» и «Елизаветы» Майклом Хёрстом. Сериал поведает о ранних набегах викингов на Британские острова и Западно-Франкское королевство. Главный герой – Рагнар Лодброк – вождь викингов, по норвежской легенде прямой потомок самого Одина, бога войны и воинов. Он бросает вызов местному правителю и вместе со своим верным другом, талантливым мастером Флоки, строит быстроходный корабль, чтобы отправиться покорять новые земли. Рагнара и его соратников ждут победы и поражения, а вместе с ними и жестокое противостояние с действующим ярлом, воле которого он осмелился перечить. В роли легендарного воина австралийский актер Трэвис Фиммел («Варкрафт»).

Север помнит: в шестом сезоне «Викингов» готовьтесь к долгому увлекательному путешествию. Новые эпизоды сериала будут посвящены экспансии викингов: герои отправятся по Шелковому пути. Им предстоит столкнуться не только с традициями Китая, но и Древней Русью. В новом сезоне каст пополнил российский актер Данила Козловский («Экипаж», «Легенда №17»). Ему досталась важная роль — он сыграл Вещего Олега, очередного опасного противника Рагнара Лодброка.

Качество: WEB-DLRip
Формат: AVI

Видео: XviD, 720x400 (16:9), 23.976 кадров/сек, 1600 Кбит/сек
Аудио Rus: AC3, 48,0 kHz, 2 ch, 192 Кбит/сек | AlexFilm
Аудио Eng: AC3, 48,0 kHz, 2 ch, 192 Кбит/сек
скриншот  скриншот  скриншот  скриншот  

Общее
Полное имя : E:\Vikings (Season 6) WEB-DLRip\Vikings.S06E02.WEB-DLRip.RGzsRutracker.[Wentworth_Miller].avi
Формат : AVI
Формат/Информация : Audio Video Interleave
Размер файла : 631 Мбайт
Продолжительность : 44 м. 11 с.
Общий поток : 1998 Кбит/сек
Название фильма : Vikings 06x02 (The Prophet / Вещий Олег) - Release by Wentworth_Miller
Программа кодирования : VirtualDubMod 1.5.10.3 | www.virtualdub-fr.org || (build 2550/release)

Видео
Идентификатор : 0
Формат : MPEG-4 Visual
Профиль формата : Advanced Simple@L5
Настройки формата : BVOP1
Параметр BVOP формата : 1
Параметр QPel формата : Нет
Параметр GMC формата : Без точки перехода
Параметр матрицы формата : Default (MPEG)
Идентификатор кодека : XVID
Идентификатор кодека/Подсказка : XviD
Продолжительность : 44 м. 11 с.
Битрейт : 1600 Кбит/сек
Ширина : 720 пикселей
Высота : 400 пикселей
Соотношение сторон : 16:9
Частота кадров : 23,976 (24000/1001) кадра/сек
Цветовое пространство : YUV
Субдискретизация насыщенности : 4:2:0
Битовая глубина : 8 бит
Тип развёртки : Прогрессивная
Метод сжатия : С потерями
Бит/(Пиксели*Кадры) : 0.232
Размер потока : 506 Мбайт (80%)
Библиотека кодирования : XviD 67

Аудио #1
Идентификатор : 1
Формат : AC-3
Формат/Информация : Audio Coding 3
Коммерческое название : Dolby Digital
Идентификатор кодека : 2000
Продолжительность : 44 м. 11 с.
Вид битрейта : Постоянный
Битрейт : 192 Кбит/сек
Каналы : 2 канала
ChannelLayout : L R
Частота : 48,0 КГц
Частота кадров : 31,250 кадров/сек (1536 SPF)
Метод сжатия : С потерями
Размер потока : 60,7 Мбайт (10%)
Выравнивание : Разделение по промежуткам
Продолжительность промежутка : 42 мс. (1,00 видеокадр)
Время предзагрузки промежутка : 500 мс.
ServiceKind/String : Complete Main

Аудио #2
Идентификатор : 2
Формат : AC-3
Формат/Информация : Audio Coding 3
Коммерческое название : Dolby Digital
Идентификатор кодека : 2000
Продолжительность : 44 м. 11 с.
Вид битрейта : Постоянный
Битрейт : 192 Кбит/сек
Каналы : 2 канала
ChannelLayout : L R
Частота : 48,0 КГц
Частота кадров : 31,250 кадров/сек (1536 SPF)
Метод сжатия : С потерями
Размер потока : 60,7 Мбайт (10%)
Выравнивание : Разделение по промежуткам
Продолжительность промежутка : 42 мс. (1,00 видеокадр)
Время предзагрузки промежутка : 500 мс.
ServiceKind/String : Complete Main

Внимание! Раздача ведётся путём добавления новых серий; при каждом добавлении создаётся новый торрент. Чтобы начать докачку новой серии, пользователям необходимо сделать следующее:
(1) остановить скачивание,
(2) удалить старый торрент у себя из клиента (старые серии удалять не надо),
(3) скачать новый торрент и запустить его у себя в клиенте вместо старого, при этом указать клиенту путь в старую папку куда и должно происходить скачивание новых серий.

Ваш клиент при этом должен произвести хеширование (проверку) старой папки (если не производит сам - помогите ему сделать это), и будет докачивать только те серии которых у вас ещё нет. Старые серии при этом не удаляются, а продолжают раздаваться!

Eсли вы уже удалили старые серии, то предотвратить повторную закачку старых серий можно, отжав галочку в соответсвующих местах при запуске нового торрента. По возможности, желательно не удалять старые серии как можно дольше чтобы релизёр не столько продолжал раздавать старые серии, а смог сконцентрироваться на новых.
piratbit.pw



Скачать Викинги через торрент http://i74.fastpic.ru/big/2016/0219/4f/bc0fcdc3863d679dbcd811bcd087514f.gif Скачать фильм Викинги через торрент бесплантно в хорошем качестве Описание: Вольная интерпретация событий времен раннего Средневековья – экшн-драма, созданная на основе скандинавских саг сценаристом ... 9.4 10 16
Торрент: Зарегистрирован [2020-01-23 20:42] · скачан: 5 раз
Статус: √ проверено
Размер: 4.97 GB
Как cкачать? Как скачать Викинги через торрент | qTorrent

% Раздел Тема Автор DL S | L
T Зарубежные сериалы [ 10.34 GB ] Викинги / Vikings / Сезоны: 6 / Серии: 1-8 из 20 [2019 история военный WEBRip 720p] MVO [Kerob] bober100 Скачать
11 | 19
Зарубежные сериалы [ 11.98 GB ] Викинги / Vikings / Сезоны: 6 / Серии: 1-8 из 20 [2019 военный WEB-DL 720p] MVO [AlexFilm] bober100 Скачать
3 | 10
Зарубежные сериалы [ 22.07 GB ] Викинги / Vikings / Сезоны: 6 / Серии: 1-8 из 20 [2019 военный WEB-DL 1080p] MVO [AlexFilm] bober100 Скачать
2 | 13
T Зарубежные сериалы [ 3.39 GB ] Викинги / Vikings / Сезоны: 6 / Серии: 1-8 из 20 [2019 история военный WEBRip] MVO [Kerob] bober100 Скачать
2 | 4
T Зарубежные сериалы [ 18.33 GB ] Викинги / Vikings / Сезоны: 6 / Серии: 1-8 из 20 [2019 история военный WEBRip 1080p] MVO [Octopus] bober100 Скачать
5 | 6
T Зарубежные сериалы [ 11.87 GB ] Викинги / Vikings / Сезоны: 6 / Серии: 1-8 из 20 [2019 история военный WEBRip 720p] MVO [Octopus] bober100 Скачать
1 | 3
T Зарубежные сериалы [ 4.79 GB ] Викинги / Vikings / Сезоны: 6 / Серии: 1-8 из 20 [2019 история военный WEBRip] MVO [Octopus] bober100 Скачать
2 | 3

28-11-2019 20:33  

Отключить всю рекламу на сайте

    Дорогой пользователь! Огромная просьба, поблагодарите релизера, оцените раздачу и оставьте свои комментарий, если Вы скачали Викинги через торрент бесплатно! Внесите свою лепту в развитие PiratBit!
    Комментировать посты могут только пользователи прошедшие не сложную регистрацию
    Показать сообщения:    

    Викинги через торрент
    Скачать бесплатно Викинги
    Викинги скачать торрент
    Викинги смотреть онлайн
    Cкачать фильм Викинги бесплатно
    Викинги скачать торрент в хорошем качестве
    Викинги смотреть онлайн бесплатно в хорошем качестве


    Вы не можете начинать темы
    Вы не можете отвечать на сообщения
    Вы не можете редактировать свои сообщения
    Вы не можете удалять свои сообщения
    Вы не можете голосовать в опросах
    Вы не можете прикреплять файлы к сообщениям
    Вы можете скачивать файлы